  0
SECTION
  2
HEADER
  9
$ACADVER
  1
AC1018
  9
$ACADMAINTVER
 70
     0
  9
$DWGCODEPAGE
  3
ANSI_1252
  9
$INSBASE
 10
0.0
 20
0.0
 30
0.0
  9
$EXTMIN
 10
-384.7842967758601
 20
-303.3298053432702
 30
0.0
  9
$EXTMAX
 10
-87.784296775862
 20
-93.3298053432701
 30
0.0
  9
$LIMMIN
 10
0.0
 20
0.0
  9
$LIMMAX
 10
12.0
 20
9.0
  9
$ORTHOMODE
 70
     0
  9
$REGENMODE
 70
     1
  9
$FILLMODE
 70
     1
  9
$QTEXTMODE
 70
     0
  9
$MIRRTEXT
 70
     1
  9
$LTSCALE
 40
1.0
  9
$ATTMODE
 70
     1
  9
$TEXTSIZE
 40
0.2
  9
$TRACEWID
 40
0.05
  9
$TEXTSTYLE
  7
Standard
  9
$CLAYER
  8
0
  9
$CELTYPE
  6
ByLayer
  9
$CECOLOR
 62
   256
  9
$CELTSCALE
 40
1.0
  9
$DISPSILH
 70
     0
  9
$DIMSCALE
 40
1.0
  9
$DIMASZ
 40
0.18
  9
$DIMEXO
 40
0.0625
  9
$DIMDLI
 40
0.38
  9
$DIMRND
 40
0.0
  9
$DIMDLE
 40
0.0
  9
$DIMEXE
 40
0.18
  9
$DIMTP
 40
0.0
  9
$DIMTM
 40
0.0
  9
$DIMTXT
 40
0.18
  9
$DIMCEN
 40
0.09
  9
$DIMTSZ
 40
0.0
  9
$DIMTOL
 70
     0
  9
$DIMLIM
 70
     0
  9
$DIMTIH
 70
     1
  9
$DIMTOH
 70
     1
  9
$DIMSE1
 70
     0
  9
$DIMSE2
 70
     0
  9
$DIMTAD
 70
     0
  9
$DIMZIN
 70
     0
  9
$DIMBLK
  1

  9
$DIMASO
 70
     1
  9
$DIMSHO
 70
     1
  9
$DIMPOST
  1

  9
$DIMAPOST
  1

  9
$DIMALT
 70
     0
  9
$DIMALTD
 70
     2
  9
$DIMALTF
 40
25.4
  9
$DIMLFAC
 40
1.0
  9
$DIMTOFL
 70
     0
  9
$DIMTVP
 40
0.0
  9
$DIMTIX
 70
     0
  9
$DIMSOXD
 70
     0
  9
$DIMSAH
 70
     0
  9
$DIMBLK1
  1

  9
$DIMBLK2
  1

  9
$DIMSTYLE
  2
Standard
  9
$DIMCLRD
 70
     0
  9
$DIMCLRE
 70
     0
  9
$DIMCLRT
 70
     0
  9
$DIMTFAC
 40
1.0
  9
$DIMGAP
 40
0.09
  9
$DIMJUST
 70
     0
  9
$DIMSD1
 70
     0
  9
$DIMSD2
 70
     0
  9
$DIMTOLJ
 70
     1
  9
$DIMTZIN
 70
     0
  9
$DIMALTZ
 70
     0
  9
$DIMALTTZ
 70
     0
  9
$DIMUPT
 70
     0
  9
$DIMDEC
 70
     4
  9
$DIMTDEC
 70
     4
  9
$DIMALTU
 70
     2
  9
$DIMALTTD
 70
     2
  9
$DIMTXSTY
  7
Standard
  9
$DIMAUNIT
 70
     0
  9
$DIMADEC
 70
     0
  9
$DIMALTRND
 40
0.0
  9
$DIMAZIN
 70
     0
  9
$DIMDSEP
 70
    46
  9
$DIMATFIT
 70
     3
  9
$DIMFRAC
 70
     0
  9
$DIMLDRBLK
  1

  9
$DIMLUNIT
 70
     2
  9
$DIMLWD
 70
    -2
  9
$DIMLWE
 70
    -2
  9
$DIMTMOVE
 70
     0
  9
$LUNITS
 70
     2
  9
$LUPREC
 70
     4
  9
$SKETCHINC
 40
0.1
  9
$FILLETRAD
 40
0.5
  9
$AUNITS
 70
     0
  9
$AUPREC
 70
     0
  9
$MENU
  1
.
  9
$ELEVATION
 40
0.0
  9
$PELEVATION
 40
0.0
  9
$THICKNESS
 40
0.0
  9
$LIMCHECK
 70
     0
  9
$CHAMFERA
 40
0.5
  9
$CHAMFERB
 40
0.5
  9
$CHAMFERC
 40
1.0
  9
$CHAMFERD
 40
0.0
  9
$SKPOLY
 70
     0
  9
$TDCREATE
 40
2458204.718941111
  9
$TDUCREATE
 40
2458204.635607778
  9
$TDUPDATE
 40
2458204.71894147
  9
$TDUUPDATE
 40
2458204.635608137
  9
$TDINDWG
 40
0.0000000116
  9
$TDUSRTIMER
 40
0.0000000116
  9
$USRTIMER
 70
     1
  9
$ANGBASE
 50
0.0
  9
$ANGDIR
 70
     0
  9
$PDMODE
 70
     0
  9
$PDSIZE
 40
0.0
  9
$PLINEWID
 40
0.0
  9
$SPLFRAME
 70
     0
  9
$SPLINETYPE
 70
     6
  9
$SPLINESEGS
 70
     8
  9
$HANDSEED
  5
29B
  9
$SURFTAB1
 70
     6
  9
$SURFTAB2
 70
     6
  9
$SURFTYPE
 70
     6
  9
$SURFU
 70
     6
  9
$SURFV
 70
     6
  9
$UCSBASE
  2

  9
$UCSNAME
  2

  9
$UCSORG
 10
0.0
 20
0.0
 30
0.0
  9
$UCSXDIR
 10
1.0
 20
0.0
 30
0.0
  9
$UCSYDIR
 10
0.0
 20
1.0
 30
0.0
  9
$UCSORTHOREF
  2

  9
$UCSORTHOVIEW
 70
     0
  9
$UCSORGTOP
 10
0.0
 20
0.0
 30
0.0
  9
$UCSORGBOTTOM
 10
0.0
 20
0.0
 30
0.0
  9
$UCSORGLEFT
 10
0.0
 20
0.0
 30
0.0
  9
$UCSORGRIGHT
 10
0.0
 20
0.0
 30
0.0
  9
$UCSORGFRONT
 10
0.0
 20
0.0
 30
0.0
  9
$UCSORGBACK
 10
0.0
 20
0.0
 30
0.0
  9
$PUCSBASE
  2

  9
$PUCSNAME
  2

  9
$PUCSORG
 10
0.0
 20
0.0
 30
0.0
  9
$PUCSXDIR
 10
1.0
 20
0.0
 30
0.0
  9
$PUCSYDIR
 10
0.0
 20
1.0
 30
0.0
  9
$PUCSORTHOREF
  2

  9
$PUCSORTHOVIEW
 70
     0
  9
$PUCSORGTOP
 10
0.0
 20
0.0
 30
0.0
  9
$PUCSORGBOTTOM
 10
0.0
 20
0.0
 30
0.0
  9
$PUCSORGLEFT
 10
0.0
 20
0.0
 30
0.0
  9
$PUCSORGRIGHT
 10
0.0
 20
0.0
 30
0.0
  9
$PUCSORGFRONT
 10
0.0
 20
0.0
 30
0.0
  9
$PUCSORGBACK
 10
0.0
 20
0.0
 30
0.0
  9
$USERI1
 70
     0
  9
$USERI2
 70
     0
  9
$USERI3
 70
     0
  9
$USERI4
 70
     0
  9
$USERI5
 70
     0
  9
$USERR1
 40
18.1
  9
$USERR2
 40
0.0
  9
$USERR3
 40
0.0
  9
$USERR4
 40
0.0
  9
$USERR5
 40
0.0
  9
$WORLDVIEW
 70
     1
  9
$SHADEDGE
 70
     3
  9
$SHADEDIF
 70
    70
  9
$TILEMODE
 70
     1
  9
$MAXACTVP
 70
    64
  9
$PINSBASE
 10
0.0
 20
0.0
 30
0.0
  9
$PLIMCHECK
 70
     0
  9
$PEXTMIN
 10
1.00000000000000E+20
 20
1.00000000000000E+20
 30
1.00000000000000E+20
  9
$PEXTMAX
 10
-1.00000000000000E+20
 20
-1.00000000000000E+20
 30
-1.00000000000000E+20
  9
$PLIMMIN
 10
0.0
 20
0.0
  9
$PLIMMAX
 10
12.0
 20
9.0
  9
$UNITMODE
 70
     0
  9
$VISRETAIN
 70
     1
  9
$PLINEGEN
 70
     0
  9
$PSLTSCALE
 70
     1
  9
$TREEDEPTH
 70
  3020
  9
$CMLSTYLE
  2
Standard
  9
$CMLJUST
 70
     0
  9
$CMLSCALE
 40
1.0
  9
$PROXYGRAPHICS
 70
     1
  9
$MEASUREMENT
 70
     1
  9
$CELWEIGHT
370
    -1
  9
$ENDCAPS
280
     0
  9
$JOINSTYLE
280
     0
  9
$LWDISPLAY
290
     0
  9
$INSUNITS
 70
     4
  9
$HYPERLINKBASE
  1

  9
$STYLESHEET
  1

  9
$XEDIT
290
     1
  9
$CEPSNTYPE
380
     0
  9
$PSTYLEMODE
290
     1
  9
$FINGERPRINTGUID
  2
{65427593-FA36-42A7-B3C6-45D4211962F5}
  9
$VERSIONGUID
  2
{FAEB1C32-E019-11D5-929B-00C0DF256EC4}
  9
$EXTNAMES
290
     1
  9
$PSVPSCALE
 40
0.0
  9
$OLESTARTUP
290
     0
  9
$SORTENTS
280
   127
  9
$INDEXCTL
280
     0
  9
$HIDETEXT
280
     1
  9
$XCLIPFRAME
290
     0
  9
$HALOGAP
280
     0
  9
$OBSCOLOR
 70
   257
  9
$OBSLTYPE
280
     0
  9
$INTERSECTIONDISPLAY
280
     0
  9
$INTERSECTIONCOLOR
 70
   257
  9
$DIMASSOC
280
     2
  9
$PROJECTNAME
  1

  0
ENDSEC
  0
SECTION
  2
CLASSES
  0
CLASS
  1
ACDBDICTIONARYWDFLT
  2
AcDbDictionaryWithDefault
  3
ObjectDBX Classes
 90
        0
 91
        4
280
     0
281
     0
  0
CLASS
  1
VISUALSTYLE
  2
AcDbVisualStyle
  3
ObjectDBX Classes
 90
     4095
 91
        4
280
     0
281
     0
  0
CLASS
  1
MATERIAL
  2
AcDbMaterial
  3
ObjectDBX Classes
 90
     1153
 91
        4
280
     0
281
     0
  0
ENDSEC
  0
SECTION
  2
TABLES
  0
TABLE
  2
VPORT
  5
8
330
0
100
AcDbSymbolTable
 70
     1
  0
VPORT
  5
29
330
8
100
AcDbSymbolTableRecord
100
AcDbViewportTableRecord
  2
*Active
 70
     0
 10
0.0
 20
0.0
 11
1.0
 21
1.0
 12
-236.2842967758611
 22
-198.3298053432702
 13
0.0
 23
0.0
 14
0.5
 24
0.5
 15
0.5
 25
0.5
 16
0.0
 26
0.0
 36
1.0
 17
0.0
 27
0.0
 37
0.0
 40
231.0000000000001
 41
1.60267857142857
 42
50.0
 43
0.0
 44
0.0
 50
0.0
 51
0.0
 71
     0
 72
   100
 73
     1
 74
     3
 75
     0
 76
     0
 77
     0
 78
     0
281
     0
 65
     1
110
0.0
120
0.0
130
0.0
111
1.0
121
0.0
131
0.0
112
0.0
122
1.0
132
0.0
 79
     0
146
0.0
  0
ENDTAB
  0
TABLE
  2
LTYPE
  5
5
330
0
100
AcDbSymbolTable
 70
     8
  0
LTYPE
  5
14
330
5
100
AcDbSymbolTableRecord
100
AcDbLinetypeTableRecord
  2
ByBlock
 70
     0
  3

 72
    65
 73
     0
 40
0.0
  0
LTYPE
  5
15
330
5
100
AcDbSymbolTableRecord
100
AcDbLinetypeTableRecord
  2
ByLayer
 70
     0
  3

 72
    65
 73
     0
 40
0.0
  0
LTYPE
  5
16
330
5
100
AcDbSymbolTableRecord
100
AcDbLinetypeTableRecord
  2
Continuous
 70
     0
  3
Solid line
 72
    65
 73
     0
 40
0.0
  0
LTYPE
  5
3F
330
5
100
AcDbSymbolTableRecord
100
AcDbLinetypeTableRecord
  2
DASHED
 70
     0
  3
Dashed
 72
    65
 73
     2
 40
15.0
 49
7.0
 74
     0
 49
-8.0
 74
     0
  0
LTYPE
  5
40
330
5
100
AcDbSymbolTableRecord
100
AcDbLinetypeTableRecord
  2
DOTTED
 70
     0
  3
Dotted
 72
    65
 73
     2
 40
1.0
 49
0.0
 74
     0
 49
-1.0
 74
     0
  0
LTYPE
  5
41
330
5
100
AcDbSymbolTableRecord
100
AcDbLinetypeTableRecord
  2
DOT_CENTER
 70
     0
  3
Dot_Center
 72
    65
 73
     4
 40
14.0
 49
12.0
 74
     0
 49
-1.0
 74
     0
 49
0.0
 74
     0
 49
-1.0
 74
     0
  0
LTYPE
  5
42
330
5
100
AcDbSymbolTableRecord
100
AcDbLinetypeTableRecord
  2
LONG_DASHED
 70
     0
  3
Long_Dashed
 72
    65
 73
     2
 40
15.0
 49
10.0
 74
     0
 49
-5.0
 74
     0
  0
LTYPE
  5
43
330
5
100
AcDbSymbolTableRecord
100
AcDbLinetypeTableRecord
  2
DASH_CENTER
 70
     0
  3
Dash_Center
 72
    65
 73
     4
 40
14.0
 49
11.0
 74
     0
 49
-1.0
 74
     0
 49
1.0
 74
     0
 49
-1.0
 74
     0
  0
LTYPE
  5
44
330
5
100
AcDbSymbolTableRecord
100
AcDbLinetypeTableRecord
  2
PHANTOM
 70
     0
  3
Phantom
 72
    65
 73
     6
 40
13.0
 49
10.0
 74
     0
 49
-1.0
 74
     0
 49
0.0
 74
     0
 49
-1.0
 74
     0
 49
0.0
 74
     0
 49
-1.0
 74
     0
  0
LTYPE
  5
45
330
5
100
AcDbSymbolTableRecord
100
AcDbLinetypeTableRecord
  2
CENTER_DASH_DASH
 70
     0
  3
Center_Dash_Dash
 72
    65
 73
     6
 40
14.0
 49
9.0
 74
     0
 49
-1.0
 74
     0
 49
1.0
 74
     0
 49
-1.0
 74
     0
 49
1.0
 74
     0
 49
-1.0
 74
     0
  0
ENDTAB
  0
TABLE
  2
LAYER
  5
2
330
0
100
AcDbSymbolTable
 70
     2
  0
LAYER
  5
10
330
2
100
AcDbSymbolTableRecord
100
AcDbLayerTableRecord
  2
0
 70
     0
 62
     7
  6
Continuous
370
    -3
390
F
  0
LAYER
  5
46
330
2
100
AcDbSymbolTableRecord
100
AcDbLayerTableRecord
  2
1
 70
     0
 62
     7
  6
Continuous
370
    -3
390
F
  0
ENDTAB
  0
TABLE
  2
STYLE
  5
3
330
0
100
AcDbSymbolTable
 70
     5
  0
STYLE
  5
11
330
3
100
AcDbSymbolTableRecord
100
AcDbTextStyleTableRecord
  2
Standard
 70
     0
 40
0.0
 41
1.0
 50
0.0
 71
     0
 42
0.2
  3
txt
  4

  0
STYLE
  5
AF
330
3
100
AcDbSymbolTableRecord
100
AcDbTextStyleTableRecord
  2
CONVERTER_11
 70
     0
 40
0.0
 41
0.9
 50
0.0
 71
     0
 42
0.2
  3
txt.shx
  4

  0
STYLE
  5
231
330
3
100
AcDbSymbolTableRecord
100
AcDbTextStyleTableRecord
  2
CONVERTER_12
 70
     0
 40
0.0
 41
0.81
 50
0.0
 71
     0
 42
0.2
  3
txt.shx
  4

  0
STYLE
  5
237
330
3
100
AcDbSymbolTableRecord
100
AcDbTextStyleTableRecord
  2
CONVERTER_13
 70
     0
 40
0.0
 41
0.855
 50
0.0
 71
     0
 42
0.2
  3
txt.shx
  4

  0
STYLE
  5
23A
330
3
100
AcDbSymbolTableRecord
100
AcDbTextStyleTableRecord
  2
CONVERTER_14
 70
     0
 40
0.0
 41
0.72
 50
0.0
 71
     0
 42
0.2
  3
txt.shx
  4

  0
ENDTAB
  0
TABLE
  2
VIEW
  5
6
330
0
100
AcDbSymbolTable
 70
     0
  0
ENDTAB
  0
TABLE
  2
UCS
  5
7
330
0
100
AcDbSymbolTable
 70
     0
  0
ENDTAB
  0
TABLE
  2
APPID
  5
9
330
0
100
AcDbSymbolTable
 70
     1
  0
APPID
  5
12
330
9
100
AcDbSymbolTableRecord
100
AcDbRegAppTableRecord
  2
ACAD
 70
     0
  0
ENDTAB
  0
TABLE
  2
DIMSTYLE
  5
A
330
0
100
AcDbSymbolTable
 70
     6
100
AcDbDimStyleTable
  0
DIMSTYLE
105
27
330
A
100
AcDbSymbolTableRecord
100
AcDbDimStyleTableRecord
  2
Standard
 70
     0
178
     0
340
11
  0
DIMSTYLE
105
B3
102
{ACAD_REACTORS
330
B4
102
}
330
A
100
AcDbSymbolTableRecord
100
AcDbDimStyleTableRecord
  2
ME10_DIM_10
 70
     0
 41
3.5
 42
0.0
 44
1.5
 73
     0
 74
     0
 77
     1
 78
     8
140
3.5
147
1.5
172
     1
173
     1
174
     1
175
     1
176
     2
177
     2
271
     2
178
     3
271
     2
340
AF
  0
DIMSTYLE
105
BE
102
{ACAD_REACTORS
330
BF
102
}
330
A
100
AcDbSymbolTableRecord
100
AcDbDimStyleTableRecord
  2
ME10_DIM_11
 70
     0
 41
3.5
 42
0.0
 44
1.5
 73
     0
 74
     0
 77
     1
 78
     8
140
3.5
147
1.5
172
     1
173
     1
174
     1
175
     1
176
     2
177
     2
271
     2
178
     3
271
     2
340
AF
  0
DIMSTYLE
105
C9
102
{ACAD_REACTORS
330
CA
102
}
330
A
100
AcDbSymbolTableRecord
100
AcDbDimStyleTableRecord
  2
ME10_DIM_12
 70
     0
 41
3.5
 42
0.0
 44
1.5
 73
     0
 74
     0
 77
     1
 78
     8
140
3.5
147
1.5
172
     1
173
     1
174
     1
175
     1
176
     2
177
     2
271
     2
178
     3
271
     2
340
AF
  0
DIMSTYLE
105
10A
102
{ACAD_REACTORS
330
10B
102
}
330
A
100
AcDbSymbolTableRecord
100
AcDbDimStyleTableRecord
  2
ME10_DIM_13
 70
     0
 41
3.5
 42
0.0
 44
1.5
 73
     0
 74
     0
 77
     1
 78
     8
140
3.5
147
1.5
172
     1
173
     1
174
     1
175
     1
176
     2
177
     2
271
     2
178
     3
271
     2
340
AF
  0
DIMSTYLE
105
138
102
{ACAD_REACTORS
330
139
102
}
330
A
100
AcDbSymbolTableRecord
100
AcDbDimStyleTableRecord
  2
ME10_DIM_14
 70
     0
 41
3.5
 42
0.0
 44
1.5
 73
     0
 74
     0
 77
     1
 78
     8
140
3.5
147
1.5
172
     1
173
     1
174
     1
175
     1
176
     2
177
     2
271
     2
178
     3
271
     2
340
AF
  0
ENDTAB
  0
TABLE
  2
BLOCK_RECORD
  5
1
330
0
100
AcDbSymbolTable
 70
    22
  0
BLOCK_RECORD
  5
1F
330
1
100
AcDbSymbolTableRecord
100
AcDbBlockTableRecord
  2
*Model_Space
340
22
  0
BLOCK_RECORD
  5
1B
330
1
100
AcDbSymbolTableRecord
100
AcDbBlockTableRecord
  2
*Paper_Space
340
1E
  0
BLOCK_RECORD
  5
23
330
1
100
AcDbSymbolTableRecord
100
AcDbBlockTableRecord
  2
*Paper_Space0
340
26
  0
BLOCK_RECORD
  5
47
330
1
100
AcDbSymbolTableRecord
100
AcDbBlockTableRecord
  2
D_MSB_1_5_F-select__1
340
0
102
{BLKREFS
331
4B
102
}
  0
BLOCK_RECORD
  5
4A
330
1
100
AcDbSymbolTableRecord
100
AcDbBlockTableRecord
  2
Back1
340
0
102
{BLKREFS
331
7D
102
}
  0
BLOCK_RECORD
  5
4E
330
1
100
AcDbSymbolTableRecord
100
AcDbBlockTableRecord
  2
D_MSB_1_5_F-select__2
340
0
102
{BLKREFS
331
52
102
}
  0
BLOCK_RECORD
  5
51
330
1
100
AcDbSymbolTableRecord
100
AcDbBlockTableRecord
  2
Front1
340
0
102
{BLKREFS
331
7E
102
}
  0
BLOCK_RECORD
  5
55
330
1
100
AcDbSymbolTableRecord
100
AcDbBlockTableRecord
  2
D_MSB_1_5_F-select__3
340
0
102
{BLKREFS
331
59
102
}
  0
BLOCK_RECORD
  5
58
330
1
100
AcDbSymbolTableRecord
100
AcDbBlockTableRecord
  2
Gen1
340
0
102
{BLKREFS
331
7F
102
}
  0
BLOCK_RECORD
  5
5C
330
1
100
AcDbSymbolTableRecord
100
AcDbBlockTableRecord
  2
D_MSB_1_5_F-select__4
340
0
102
{BLKREFS
331
60
102
}
  0
BLOCK_RECORD
  5
5F
330
1
100
AcDbSymbolTableRecord
100
AcDbBlockTableRecord
  2
Left1
340
0
102
{BLKREFS
331
80
102
}
  0
BLOCK_RECORD
  5
63
330
1
100
AcDbSymbolTableRecord
100
AcDbBlockTableRecord
  2
D_MSB_1_5_F-select__5
340
0
102
{BLKREFS
331
67
102
}
  0
BLOCK_RECORD
  5
66
330
1
100
AcDbSymbolTableRecord
100
AcDbBlockTableRecord
  2
Right1
340
0
102
{BLKREFS
331
81
102
}
  0
BLOCK_RECORD
  5
6A
330
1
100
AcDbSymbolTableRecord
100
AcDbBlockTableRecord
  2
D_MSB_1_5_F-select__6
340
0
102
{BLKREFS
331
6E
102
}
  0
BLOCK_RECORD
  5
6D
330
1
100
AcDbSymbolTableRecord
100
AcDbBlockTableRecord
  2
Top1
340
0
102
{BLKREFS
331
82
102
}
  0
BLOCK_RECORD
  5
71
330
1
100
AcDbSymbolTableRecord
100
AcDbBlockTableRecord
  2
_rahmen
340
0
102
{BLKREFS
331
78
102
}
  0
BLOCK_RECORD
  5
74
330
1
100
AcDbSymbolTableRecord
100
AcDbBlockTableRecord
  2
_punkt
340
0
102
{BLKREFS
331
79
102
}
  0
BLOCK_RECORD
  5
77
330
1
100
AcDbSymbolTableRecord
100
AcDbBlockTableRecord
  2
A4I_CS
340
0
102
{BLKREFS
331
83
102
}
  0
BLOCK_RECORD
  5
7C
330
1
100
AcDbSymbolTableRecord
100
AcDbBlockTableRecord
  2
1
340
0
102
{BLKREFS
331
86
102
}
  0
BLOCK_RECORD
  5
A9
330
1
100
AcDbSymbolTableRecord
100
AcDbBlockTableRecord
  2
*D17
340
0
  0
BLOCK_RECORD
  5
B5
330
1
100
AcDbSymbolTableRecord
100
AcDbBlockTableRecord
  2
*D18
340
0
  0
BLOCK_RECORD
  5
C0
330
1
100
AcDbSymbolTableRecord
100
AcDbBlockTableRecord
  2
*D19
340
0
  0
BLOCK_RECORD
  5
101
330
1
100
AcDbSymbolTableRecord
100
AcDbBlockTableRecord
  2
*D20
340
0
  0
BLOCK_RECORD
  5
12D
330
1
100
AcDbSymbolTableRecord
100
AcDbBlockTableRecord
  2
*D21
340
0
  0
ENDTAB
  0
ENDSEC
  0
SECTION
  2
BLOCKS
  0
BLOCK
  5
20
330
1F
100
AcDbEntity
  8
0
100
AcDbBlockBegin
  2
*Model_Space
 70
     0
 10
0.0
 20
0.0
 30
0.0
  3
*Model_Space
  1

  0
ENDBLK
  5
21
330
1F
100
AcDbEntity
  8
0
100
AcDbBlockEnd
  0
BLOCK
  5
1C
330
1B
100
AcDbEntity
 67
     1
  8
0
100
AcDbBlockBegin
  2
*Paper_Space
 70
     0
 10
0.0
 20
0.0
 30
0.0
  3
*Paper_Space
  1

  0
ENDBLK
  5
1D
330
1B
100
AcDbEntity
 67
     1
  8
0
100
AcDbBlockEnd
  0
BLOCK
  5
24
330
23
100
AcDbEntity
  8
0
100
AcDbBlockBegin
  2
*Paper_Space0
 70
     0
 10
0.0
 20
0.0
 30
0.0
  3
*Paper_Space0
  1

  0
ENDBLK
  5
25
330
23
100
AcDbEntity
  8
0
100
AcDbBlockEnd
  0
BLOCK
  5
48
330
47
100
AcDbEntity
  8
0
100
AcDbBlockBegin
  2
D_MSB_1_5_F-select__1
 70
     0
 10
-187.1000006789861
 20
-167.0000003372503
 30
0.0
  3
D_MSB_1_5_F-select__1
  1

  0
LINE
  5
87
330
47
100
AcDbEntity
  8
0
  6
Continuous
 62
     7
100
AcDbLine
 10
-185.1837946926437
 20
-167.0000003372503
 30
0.0
 11
-157.0162066653247
 21
-167.0000003372503
 31
0.0
  0
LINE
  5
88
330
47
100
AcDbEntity
  8
0
  6
Continuous
 62
     7
100
AcDbLine
 10
-187.1000006789861
 20
-158.7000003372503
 30
0.0
 11
-185.1837946926437
 21
-167.0000003372503
 31
0.0
  0
LINE
  5
89
330
47
100
AcDbEntity
  8
0
  6
Continuous
 62
     7
100
AcDbLine
 10
-187.1000006789861
 20
-147.0982914076816
 30
0.0
 11
-187.1000006789861
 21
-158.7000003372503
 31
0.0
  0
LINE
  5
8A
330
47
100
AcDbEntity
  8
0
  6
Continuous
 62
     7
100
AcDbLine
 10
-155.1000006789822
 20
-147.0982914076816
 30
0.0
 11
-167.0000006789843
 21
-145.0000003372503
 31
0.0
  0
LINE
  5
8B
330
47
100
AcDbEntity
  8
0
  6
Continuous
 62
     7
100
AcDbLine
 10
-167.0000006789843
 20
-145.0000003372503
 30
0.0
 11
-175.200000678984
 21
-145.0000003372503
 31
0.0
  0
LINE
  5
8C
330
47
100
AcDbEntity
  8
0
  6
Continuous
 62
     7
100
AcDbLine
 10
-157.0162066653247
 20
-167.0000003372503
 30
0.0
 11
-155.1000006789822
 21
-158.7000003372503
 31
0.0
  0
LINE
  5
8D
330
47
100
AcDbEntity
  8
0
  6
Continuous
 62
     7
100
AcDbLine
 10
-155.1000006789822
 20
-158.7000003372503
 30
0.0
 11
-155.1000006789822
 21
-147.0982914076816
 31
0.0
  0
LINE
  5
8E
330
47
100
AcDbEntity
  8
0
  6
Continuous
 62
     7
100
AcDbLine
 10
-175.200000678984
 20
-145.0000003372503
 30
0.0
 11
-187.1000006789861
 21
-147.0982914076816
 31
0.0
  0
ENDBLK
  5
49
330
47
100
AcDbEntity
  8
0
100
AcDbBlockEnd
  0
BLOCK
  5
4C
330
4A
100
AcDbEntity
  8
0
100
AcDbBlockBegin
  2
Back1
 70
     0
 10
-171.1000008583219
 20
-155.99999999994
 30
0.0
  3
Back1
  1

  0
INSERT
  5
4B
330
4A
100
AcDbEntity
  8
0
100
AcDbBlockReference
  2
D_MSB_1_5_F-select__1
 10
-187.1000006789861
 20
-167.0000003372503
 30
0.0
  0
ENDBLK
  5
4D
330
4A
100
AcDbEntity
  8
0
100
AcDbBlockEnd
  0
BLOCK
  5
4F
330
4E
100
AcDbEntity
  8
0
100
AcDbBlockBegin
  2
D_MSB_1_5_F-select__2
 70
     0
 10
-295.0000001793196
 20
-167.0000003372502
 30
0.0
  3
D_MSB_1_5_F-select__2
  1

  0
LINE
  5
8F
330
4E
100
AcDbEntity
  8
0
  6
Continuous
 62
     7
100
AcDbLine
 10
-282.9596709931377
 20
-163.5000003372502
 30
0.0
 11
-282.9596709931377
 21
-167.0000003372502
 31
0.0
  0
LINE
  5
90
330
4E
100
AcDbEntity
  8
0
  6
Continuous
 62
     7
100
AcDbLine
 10
-295.0000001793196
 20
-158.7000003372503
 30
0.0
 11
-293.0837941929772
 21
-167.0000003372502
 31
0.0
  0
LINE
  5
91
330
4E
100
AcDbEntity
  8
0
  6
Continuous
 62
     7
100
AcDbLine
 10
-275.0403293654977
 20
-167.0000003372502
 30
0.0
 11
-274.0000001793177
 21
-167.0000003372502
 31
0.0
  0
LINE
  5
92
330
4E
100
AcDbEntity
  8
0
  6
Continuous
 62
     7
100
AcDbLine
 10
-274.0000001793177
 20
-167.0000003372502
 30
0.0
 11
-274.0000001793177
 21
-163.5000003372502
 31
0.0
  0
LINE
  5
93
330
4E
100
AcDbEntity
  8
0
  6
Continuous
 62
     7
100
AcDbLine
 10
-264.9162061656582
 20
-167.0000003372502
 30
0.0
 11
-263.0000001793158
 21
-158.7000003372503
 31
0.0
  0
LINE
  5
94
330
4E
100
AcDbEntity
  8
0
  6
Continuous
 62
     7
100
AcDbLine
 10
-284.0000001793177
 20
-167.0000003372502
 30
0.0
 11
-282.9596709931377
 21
-167.0000003372502
 31
0.0
  0
LINE
  5
95
330
4E
100
AcDbEntity
  8
0
  6
Continuous
 62
     7
100
AcDbLine
 10
-282.9596709931377
 20
-167.0000003372502
 30
0.0
 11
-280.6000001793177
 21
-167.0000003372502
 31
0.0
  0
LINE
  5
96
330
4E
100
AcDbEntity
  8
0
  6
Continuous
 62
     7
100
AcDbLine
 10
-293.0837941929772
 20
-167.0000003372502
 30
0.0
 11
-284.0000001793177
 21
-167.0000003372502
 31
0.0
  0
LINE
  5
97
330
4E
100
AcDbEntity
  8
0
  6
Continuous
 62
     7
100
AcDbLine
 10
-284.0000001793177
 20
-167.0000003372502
 30
0.0
 11
-284.0000001793177
 21
-163.5000003372502
 31
0.0
  0
LINE
  5
98
330
4E
100
AcDbEntity
  8
0
  6
Continuous
 62
     7
100
AcDbLine
 10
-283.1000001793175
 20
-145.0000003372502
 30
0.0
 11
-295.0000001793196
 21
-147.0982914076816
 31
0.0
  0
LINE
  5
99
330
4E
100
AcDbEntity
  8
0
  6
Continuous
 62
     7
100
AcDbLine
 10
-280.6000001793177
 20
-163.5000003372502
 30
0.0
 11
-277.4000001793177
 21
-163.5000003372502
 31
0.0
  0
LINE
  5
9A
330
4E
100
AcDbEntity
  8
0
  6
Continuous
 62
     7
100
AcDbLine
 10
-274.9000001793179
 20
-145.0000003372502
 30
0.0
 11
-283.1000001793175
 21
-145.0000003372502
 31
0.0
  0
LINE
  5
9B
330
4E
100
AcDbEntity
  8
0
  6
Continuous
 62
     7
100
AcDbLine
 10
-280.6000001793177
 20
-163.5000003372502
 30
0.0
 11
-280.6000001793177
 21
-167.0000003372502
 31
0.0
  0
LINE
  5
9C
330
4E
100
AcDbEntity
  8
0
  6
Continuous
 62
     7
100
AcDbLine
 10
-284.0000001793177
 20
-163.5000003372502
 30
0.0
 11
-282.9596709931377
 21
-163.5000003372502
 31
0.0
  0
LINE
  5
9D
330
4E
100
AcDbEntity
  8
0
  6
Continuous
 62
     7
100
AcDbLine
 10
-280.6000001793177
 20
-163.5000003372502
 30
0.0
 11
-282.9596709931377
 21
-163.5000003372502
 31
0.0
  0
LINE
  5
9E
330
4E
100
AcDbEntity
  8
0
  6
Continuous
 62
     7
100
AcDbLine
 10
-295.0000001793196
 20
-147.0982914076816
 30
0.0
 11
-295.0000001793196
 21
-158.7000003372503
 31
0.0
  0
LINE
  5
9F
330
4E
100
AcDbEntity
  8
0
  6
Continuous
 62
     7
100
AcDbLine
 10
-280.6000001793177
 20
-167.0000003372502
 30
0.0
 11
-277.4000001793177
 21
-167.0000003372502
 31
0.0
  0
LINE
  5
A0
330
4E
100
AcDbEntity
  8
0
  6
Continuous
 62
     7
100
AcDbLine
 10
-274.0000001793177
 20
-167.0000003372502
 30
0.0
 11
-264.9162061656582
 21
-167.0000003372502
 31
0.0
  0
LINE
  5
A1
330
4E
100
AcDbEntity
  8
0
  6
Continuous
 62
     7
100
AcDbLine
 10
-275.0403293654977
 20
-163.5000003372502
 30
0.0
 11
-274.0000001793177
 21
-163.5000003372502
 31
0.0
  0
LINE
  5
A2
330
4E
100
AcDbEntity
  8
0
  6
Continuous
 62
     7
100
AcDbLine
 10
-277.4000001793177
 20
-163.5000003372502
 30
0.0
 11
-275.0403293654977
 21
-163.5000003372502
 31
0.0
  0
LINE
  5
A3
330
4E
100
AcDbEntity
  8
0
  6
Continuous
 62
     7
100
AcDbLine
 10
-263.0000001793158
 20
-158.7000003372503
 30
0.0
 11
-263.0000001793158
 21
-147.0982914076816
 31
0.0
  0
LINE
  5
A4
330
4E
100
AcDbEntity
  8
0
  6
Continuous
 62
     7
100
AcDbLine
 10
-277.4000001793177
 20
-167.0000003372502
 30
0.0
 11
-275.0403293654977
 21
-167.0000003372502
 31
0.0
  0
LINE
  5
A5
330
4E
100
AcDbEntity
  8
0
  6
Continuous
 62
     7
100
AcDbLine
 10
-275.0403293654977
 20
-163.5000003372502
 30
0.0
 11
-275.0403293654977
 21
-167.0000003372502
 31
0.0
  0
LINE
  5
A6
330
4E
100
AcDbEntity
  8
0
  6
Continuous
 62
     7
100
AcDbLine
 10
-277.4000001793177
 20
-163.5000003372502
 30
0.0
 11
-277.4000001793177
 21
-167.0000003372502
 31
0.0
  0
LINE
  5
A7
330
4E
100
AcDbEntity
  8
0
  6
Continuous
 62
     7
100
AcDbLine
 10
-263.0000001793158
 20
-147.0982914076816
 30
0.0
 11
-274.9000001793179
 21
-145.0000003372502
 31
0.0
  0
LINE
  5
A8
330
4E
100
AcDbEntity
  8
1
  6
DOT_CENTER
 62
     2
100
AcDbLine
 10
-279.0000001793177
 20
-163.5000003372502
 30
0.0
 11
-279.0000001793177
 21
-167.0000003372502
 31
0.0
  0
ENDBLK
  5
50
330
4E
100
AcDbEntity
  8
0
100
AcDbBlockEnd
  0
BLOCK
  5
53
330
51
100
AcDbEntity
  8
0
100
AcDbBlockBegin
  2
Front1
 70
     0
 10
-278.99999999998
 20
-155.99999999994
 30
0.0
  3
Front1
  1

  0
INSERT
  5
52
330
51
100
AcDbEntity
  8
0
100
AcDbBlockReference
  2
D_MSB_1_5_F-select__2
 10
-295.0000001793196
 20
-167.0000003372502
 30
0.0
  0
DIMENSION
  5
B4
330
51
100
AcDbEntity
  8
1
100
AcDbDimension
  2
*D17
 10
-279.0000001793177
 20
-177.0000003372502
 30
0.0
 11
-271.965340029947
 21
-173.7500003372502
 31
0.0
 70
    32
  1
<>
 71
     5
 42
-1.0
 53
0.00013888888889
  3
ME10_DIM_10
100
AcDbAlignedDimension
 13
-263.0000001793158
 23
-158.7000003372503
 33
0.0
 14
-279.0000001793177
 24
-167.0000003372502
 34
0.0
100
AcDbRotatedDimension
  0
DIMENSION
  5
BF
330
51
100
AcDbEntity
  8
1
100
AcDbDimension
  2
*D18
 10
-295.0000001793196
 20
-185.231126130383
 30
0.0
 11
-279.234869016166
 21
-181.981126130383
 31
0.0
 70
    32
  1
<>
 71
     5
 42
-1.0
 53
0.00013888888889
  3
ME10_DIM_11
100
AcDbAlignedDimension
 13
-263.0000001793158
 23
-158.7000003372503
 33
0.0
 14
-295.0000001793196
 24
-158.7000003372503
 34
0.0
100
AcDbRotatedDimension
  0
DIMENSION
  5
CA
330
51
100
AcDbEntity
  8
1
100
AcDbDimension
  2
*D19
 10
-305.0000001793198
 20
-145.0000003372502
 30
0.0
 11
-308.2500001793198
 21
-156.006026629264
 31
0.0
 70
    32
  1
<>
 71
     5
 42
-1.0
 53
90.0
  3
ME10_DIM_12
100
AcDbAlignedDimension
 13
-293.0837941929772
 23
-167.0000003372502
 33
0.0
 14
-283.1000001793175
 24
-145.0000003372502
 34
0.0
 50
90.0
100
AcDbRotatedDimension
  0
ENDBLK
  5
54
330
51
100
AcDbEntity
  8
0
100
AcDbBlockEnd
  0
BLOCK
  5
56
330
55
100
AcDbEntity
  8
0
100
AcDbBlockBegin
  2
D_MSB_1_5_F-select__3
 70
     0
 10
-149.381406711226
 20
-251.6596103492901
 30
0.0
  3
D_MSB_1_5_F-select__3
  1

  0
LINE
  5
CB
330
55
100
AcDbEntity
  8
0
  6
Continuous
 62
     7
100
AcDbLine
 10
-139.0757044061894
 20
-228.0373588214134
 30
0.0
 11
-149.381406711226
 21
-226.8795321929404
 31
0.0
  0
LINE
  5
CC
330
55
100
AcDbEntity
  8
0
  6
Continuous
 62
     7
100
AcDbLine
 10
-129.9742960951573
 20
-228.3553080138444
 30
0.0
 11
-131.9742960951573
 21
-230.0873588214133
 31
0.0
  0
LINE
  5
CD
330
55
100
AcDbEntity
  8
0
  6
Continuous
 62
     7
100
AcDbLine
 10
-121.6685937901207
 20
-234.8795321929414
 30
0.0
 11
-119.6685937901207
 21
-233.1474813853725
 31
0.0
  0
LINE
  5
CE
330
55
100
AcDbEntity
  8
0
  6
Continuous
 62
     7
100
AcDbLine
 10
-131.9742960951573
 20
-230.0873588214133
 30
0.0
 11
-139.0757044061894
 21
-228.0373588214134
 31
0.0
  0
LINE
  5
CF
330
55
100
AcDbEntity
  8
0
  6
Continuous
 62
     7
100
AcDbLine
 10
-129.9742960951573
 20
-228.3553080138444
 30
0.0
 11
-119.6685937901207
 21
-233.1474813853725
 31
0.0
  0
LINE
  5
D0
330
55
100
AcDbEntity
  8
0
  6
Continuous
 62
     7
100
AcDbLine
 10
-147.381406711226
 20
-225.1474813853716
 30
0.0
 11
-137.0757044061894
 21
-226.3053080138445
 31
0.0
  0
LINE
  5
D1
330
55
100
AcDbEntity
  8
0
  6
Continuous
 62
     7
100
AcDbLine
 10
-119.6685937901207
 20
-243.1948560456918
 30
0.0
 11
-121.6685937901207
 21
-244.9269068532607
 31
0.0
  0
LINE
  5
D2
330
55
100
AcDbEntity
  8
0
  6
Continuous
 62
     7
100
AcDbLine
 10
-119.6685937901207
 20
-243.1948560456918
 30
0.0
 11
-121.328076853177
 21
-249.903815400517
 31
0.0
  0
LINE
  5
D3
330
55
100
AcDbEntity
  8
0
  6
Continuous
 62
     7
100
AcDbLine
 10
-123.328076853177
 20
-251.6358662080859
 30
0.0
 11
-121.6685937901207
 21
-244.9269068532607
 31
0.0
  0
LINE
  5
D4
330
55
100
AcDbEntity
  8
0
  6
Continuous
 62
     7
100
AcDbLine
 10
-123.328076853177
 20
-251.6358662080859
 30
0.0
 11
-121.328076853177
 21
-249.903815400517
 31
0.0
  0
LINE
  5
D5
330
55
100
AcDbEntity
  8
0
  6
Continuous
 62
     7
100
AcDbLine
 10
-135.0458247352813
 20
-251.6596103492901
 30
0.0
 11
-131.1948732317511
 21
-249.364917704671
 31
0.0
  0
LINE
  5
D6
330
55
100
AcDbEntity
  8
0
  6
Continuous
 62
     7
100
AcDbLine
 10
-131.1948732317511
 20
-249.364917704671
 30
0.0
 11
-123.328076853177
 21
-251.6358662080859
 31
0.0
  0
LINE
  5
D7
330
55
100
AcDbEntity
  8
0
  6
Continuous
 62
     7
100
AcDbLine
 10
-137.0893596046183
 20
-248.0386037325896
 30
0.0
 11
-135.5393596046183
 21
-246.6962643567237
 31
0.0
  0
LINE
  5
D8
330
55
100
AcDbEntity
  8
0
  6
Continuous
 62
     2
100
AcDbLine
 10
-138.3106408967284
 20
-248.9273532699692
 30
0.0
 11
-138.3106408967284
 21
-245.8962643567237
 31
0.0
  0
LINE
  5
D9
330
55
100
AcDbEntity
  8
0
  6
Continuous
 62
     7
100
AcDbLine
 10
-139.8606408967278
 20
-247.238603732589
 30
0.0
 11
-138.3106408967284
 21
-245.8962643567237
 31
0.0
  0
LINE
  5
DA
330
55
100
AcDbEntity
  8
0
  6
Continuous
 62
     7
100
AcDbLine
 10
-147.7219236481697
 20
-244.5939692012561
 30
0.0
 11
-141.6784331350983
 21
-246.3385746385395
 31
0.0
  0
LINE
  5
DB
330
55
100
AcDbEntity
  8
0
  6
Continuous
 62
     7
100
AcDbLine
 10
-131.1948732317511
 20
-249.364917704671
 30
0.0
 11
-131.1948732317511
 21
-246.3338287914255
 31
0.0
  0
LINE
  5
DC
330
55
100
AcDbEntity
  8
0
  6
Continuous
 62
     7
100
AcDbLine
 10
-135.0458247352813
 20
-248.6285214360446
 30
0.0
 11
-131.1948732317511
 21
-246.3338287914255
 31
0.0
  0
LINE
  5
DD
330
55
100
AcDbEntity
  8
0
  6
Continuous
 62
     7
100
AcDbLine
 10
-131.1948732317511
 20
-246.3338287914255
 30
0.0
 11
-139.8551272695955
 21
-243.8338287914255
 31
0.0
  0
LINE
  5
DE
330
55
100
AcDbEntity
  8
0
  6
Continuous
 62
     7
100
AcDbLine
 10
-137.0757044061894
 20
-226.3053080138445
 30
0.0
 11
-129.9742960951573
 21
-228.3553080138444
 31
0.0
  0
LINE
  5
DF
330
55
100
AcDbEntity
  8
0
  6
Continuous
 62
     7
100
AcDbLine
 10
-149.381406711226
 20
-226.8795321929404
 30
0.0
 11
-149.381406711226
 21
-236.9269068532597
 31
0.0
  0
LINE
  5
E0
330
55
100
AcDbEntity
  8
0
  6
Continuous
 62
     7
100
AcDbLine
 10
-141.9041757660656
 20
-246.6486860291349
 30
0.0
 11
-141.9041757660656
 21
-249.6797749423804
 31
0.0
  0
LINE
  5
E1
330
55
100
AcDbEntity
  8
0
  6
Continuous
 62
     7
100
AcDbLine
 10
-139.8606408967278
 20
-250.2696926458345
 30
0.0
 11
-138.3106408967284
 21
-248.9273532699692
 31
0.0
  0
LINE
  5
E2
330
55
100
AcDbEntity
  8
0
  6
Continuous
 62
     7
100
AcDbLine
 10
-139.8606408967278
 20
-247.238603732589
 30
0.0
 11
-139.8606408967278
 21
-250.2696926458345
 31
0.0
  0
LINE
  5
E3
330
55
100
AcDbEntity
  8
0
  6
Continuous
 62
     7
100
AcDbLine
 10
-139.8606408967278
 20
-247.238603732589
 30
0.0
 11
-141.9041757660656
 21
-246.6486860291349
 31
0.0
  0
LINE
  5
E4
330
55
100
AcDbEntity
  8
0
  6
Continuous
 62
     7
100
AcDbLine
 10
-141.9041757660656
 20
-249.6797749423804
 30
0.0
 11
-139.8606408967278
 21
-250.2696926458345
 31
0.0
  0
LINE
  5
E5
330
55
100
AcDbEntity
  8
0
  6
Continuous
 62
     7
100
AcDbLine
 10
-139.8551272695955
 20
-243.8338287914255
 30
0.0
 11
-141.9041757660656
 21
-246.6486860291349
 31
0.0
  0
LINE
  5
E6
330
55
100
AcDbEntity
  8
0
  6
Continuous
 62
     7
100
AcDbLine
 10
-149.381406711226
 20
-236.9269068532597
 30
0.0
 11
-147.7219236481697
 21
-244.5939692012561
 31
0.0
  0
LINE
  5
E7
330
55
100
AcDbEntity
  8
0
  6
Continuous
 62
     7
100
AcDbLine
 10
-149.381406711226
 20
-226.8795321929404
 30
0.0
 11
-147.381406711226
 21
-225.1474813853716
 31
0.0
  0
LINE
  5
E8
330
55
100
AcDbEntity
  8
0
  6
Continuous
 62
     7
100
AcDbLine
 10
-119.6685937901207
 20
-233.1474813853725
 30
0.0
 11
-119.6685937901207
 21
-243.1948560456918
 31
0.0
  0
LINE
  5
E9
330
55
100
AcDbEntity
  8
0
  6
Continuous
 62
     7
100
AcDbLine
 10
-137.0893596046183
 20
-248.0386037325896
 30
0.0
 11
-137.0893596046183
 21
-251.0696926458351
 31
0.0
  0
LINE
  5
EA
330
55
100
AcDbEntity
  8
0
  6
Continuous
 62
     7
100
AcDbLine
 10
-135.0458247352813
 20
-248.6285214360446
 30
0.0
 11
-135.0458247352813
 21
-251.6596103492901
 31
0.0
  0
LINE
  5
EB
330
55
100
AcDbEntity
  8
0
  6
Continuous
 62
     7
100
AcDbLine
 10
-137.0893596046183
 20
-248.0386037325896
 30
0.0
 11
-135.0458247352813
 21
-248.6285214360446
 31
0.0
  0
LINE
  5
EC
330
55
100
AcDbEntity
  8
0
  6
Continuous
 62
     7
100
AcDbLine
 10
-137.0893596046183
 20
-251.0696926458351
 30
0.0
 11
-135.0458247352813
 21
-251.6596103492901
 31
0.0
  0
LINE
  5
ED
330
55
100
AcDbEntity
  8
0
  6
Continuous
 62
     7
100
AcDbLine
 10
-139.0757044061894
 20
-228.0373588214134
 30
0.0
 11
-137.0757044061894
 21
-226.3053080138445
 31
0.0
  0
LINE
  5
EE
330
55
100
AcDbEntity
  8
0
  6
Continuous
 62
     7
100
AcDbLine
 10
-121.6685937901207
 20
-244.9269068532607
 30
0.0
 11
-121.6685937901207
 21
-234.8795321929414
 31
0.0
  0
LINE
  5
EF
330
55
100
AcDbEntity
  8
0
  6
Continuous
 62
     7
100
AcDbLine
 10
-121.6685937901207
 20
-234.8795321929414
 30
0.0
 11
-131.9742960951573
 21
-230.0873588214133
 31
0.0
  0
SPLINE
  5
F0
330
55
100
AcDbEntity
  8
0
  6
Continuous
 62
     7
100
AcDbSpline
210
0.0
220
0.0
230
1.0
 70
     8
 71
     3
 72
     9
 73
     5
 74
     3
 42
0.000000001
 43
0.0000000001
 44
0.00000001
 40
0.0
 40
0.0
 40
0.0
 40
0.0
 40
0.2141125362462606
 40
0.4646651497479076
 40
0.4646651497479076
 40
0.4646651497479076
 40
0.4646651497479076
 10
-135.3250002506734
 20
-246.2962643567237
 30
0.0
 10
-135.3368701344591
 20
-246.3685214833255
 30
0.0
 10
-135.3626300704246
 20
-246.5253332596268
 30
0.0
 10
-135.4774483196644
 20
-246.6363843695133
 30
0.0
 10
-135.5393596046183
 20
-246.6962643567237
 30
0.0
 11
-135.3250002506734
 21
-246.2962643567237
 31
0.0
 11
-135.3795193406451
 21
-246.5033195376036
 31
0.0
 11
-135.5393596046183
 21
-246.6962643567237
 31
0.0
  0
SPLINE
  5
F1
330
55
100
AcDbEntity
  8
0
  6
Continuous
 62
     7
100
AcDbSpline
210
0.0
220
0.0
230
1.0
 70
     8
 71
     3
 72
    17
 73
    13
 74
    11
 42
0.000000001
 43
0.0000000001
 44
0.00000001
 40
0.0
 40
0.0
 40
0.0
 40
0.0
 40
0.3034878861620079
 40
0.6584100775423104
 40
1.052488800826028
 40
1.467495396785244
 40
1.882501992967484
 40
2.276580717160234
 40
2.631502907933376
 40
2.934990788421765
 40
3.18554340398017
 40
3.399655933436006
 40
3.399655933436006
 40
3.399655933436006
 40
3.399655933436006
 10
-138.3106408967284
 20
-245.8962643567237
 30
0.0
 10
-138.2280219905278
 20
-245.8371439412051
 30
0.0
 10
-138.0487821430378
 20
-245.7088835530736
 30
0.0
 10
-137.7140093800022
 20
-245.5917017743263
 30
0.0
 10
-137.3336330466623
 20
-245.5131994382393
 30
0.0
 10
-136.9249407782411
 20
-245.487486854375
 30
0.0
 10
-136.5165992953426
 20
-245.5135539932396
 30
0.0
 10
-136.1352559017405
 20
-245.5904215822263
 30
0.0
 10
-135.8035058546386
 20
-245.7129028220289
 30
0.0
 10
-135.5470986979362
 20
-245.8742228681332
 30
0.0
 10
-135.3636501119581
 20
-246.0689888320416
 30
0.0
 10
-135.337191896817
 20
-246.2245729319867
 30
0.0
 10
-135.3250002506734
 20
-246.2962643567237
 30
0.0
 11
-138.3106408967284
 21
-245.8962643567237
 31
0.0
 11
-138.0563707989418
 21
-245.7305790825895
 31
0.0
 11
-137.7250002506734
 21
-245.6034440336961
 31
0.0
 11
-137.3391106124331
 21
-245.5235239017096
 31
0.0
 11
-136.9250002506733
 21
-245.4962643567237
 31
0.0
 11
-136.5108898889136
 21
-245.5235239017096
 31
0.0
 11
-136.1250002506734
 21
-245.6034440336961
 31
0.0
 11
-135.7936297024049
 21
-245.7305790825895
 31
0.0
 11
-135.5393596046183
 21
-245.8962643567237
 31
0.0
 11
-135.3795193406451
 21
-246.0892091758438
 31
0.0
 11
-135.3250002506734
 21
-246.2962643567237
 31
0.0
  0
SPLINE
  5
F2
330
55
100
AcDbEntity
  8
0
  6
Continuous
 62
     7
100
AcDbSpline
210
0.0
220
0.0
230
1.0
 70
     8
 71
     3
 72
    11
 73
     7
 74
     5
 42
0.000000001
 43
0.0000000001
 44
0.00000001
 40
0.0
 40
0.0
 40
0.0
 40
0.0
 40
0.2713922759670566
 40
0.5852888130109277
 40
0.933526497827154
 40
1.303517421924987
 40
1.303517421924987
 40
1.303517421924987
 40
1.303517421924987
 10
-138.3106408967284
 20
-248.9273532699692
 30
0.0
 10
-138.237301859307
 20
-248.8738013380333
 30
0.0
 10
-138.0791377394415
 20
-248.7583104197275
 30
0.0
 10
-137.7858885744904
 20
-248.646129228734
 30
0.0
 10
-137.4514661446752
 20
-248.5620922291144
 30
0.0
 10
-137.2124745919962
 20
-248.5419576136654
 30
0.0
 10
-137.0893596046183
 20
-248.5315854013714
 30
0.0
 11
-138.3106408967284
 21
-248.9273532699692
 31
0.0
 11
-138.0850995901791
 21
-248.7764066326342
 31
0.0
 11
-137.7952055171562
 21
-248.6560219817468
 31
0.0
 11
-137.4570391307066
 21
-248.5728776414003
 31
0.0
 11
-137.0893596046183
 21
-248.5315854013714
 31
0.0
  0
ENDBLK
  5
57
330
55
100
AcDbEntity
  8
0
100
AcDbBlockEnd
  0
BLOCK
  5
5A
330
58
100
AcDbEntity
  8
0
100
AcDbBlockBegin
  2
Gen1
 70
     0
 10
-135.9999999999899
 20
-238.99999999996
 30
0.0
  3
Gen1
  1

  0
INSERT
  5
59
330
58
100
AcDbEntity
  8
0
100
AcDbBlockReference
  2
D_MSB_1_5_F-select__3
 10
-149.381406711226
 20
-251.6596103492901
 30
0.0
  0
ENDBLK
  5
5B
330
58
100
AcDbEntity
  8
0
100
AcDbBlockEnd
  0
BLOCK
  5
5D
330
5C
100
AcDbEntity
  8
0
100
AcDbBlockBegin
  2
D_MSB_1_5_F-select__4
 70
     0
 10
-232.0000002383986
 20
-167.0000003372502
 30
0.0
  3
D_MSB_1_5_F-select__4
  1

  0
LINE
  5
F3
330
5C
100
AcDbEntity
  8
0
  6
Continuous
 62
     7
100
AcDbLine
 10
-232.0000002383986
 20
-147.0982914076816
 30
0.0
 11
-232.0000002383986
 21
-145.0000003372502
 31
0.0
  0
LINE
  5
F4
330
5C
100
AcDbEntity
  8
0
  6
Continuous
 62
     7
100
AcDbLine
 10
-228.0000002383986
 20
-147.0982914076816
 30
0.0
 11
-232.0000002383986
 21
-147.0982914076816
 31
0.0
  0
LINE
  5
F5
330
5C
100
AcDbEntity
  8
0
  6
Continuous
 62
     7
100
AcDbLine
 10
-228.0000002383986
 20
-145.0000003372502
 30
0.0
 11
-232.0000002383986
 21
-145.0000003372502
 31
0.0
  0
LINE
  5
F6
330
5C
100
AcDbEntity
  8
0
  6
Continuous
 62
     7
100
AcDbLine
 10
-228.0000002383986
 20
-163.5000003372502
 30
0.0
 11
-222.1000002383985
 21
-163.5000003372502
 31
0.0
  0
LINE
  5
F7
330
5C
100
AcDbEntity
  8
0
  6
Continuous
 62
     7
100
AcDbLine
 10
-222.1000002383985
 20
-163.5000003372502
 30
0.0
 11
-222.1000002383985
 21
-167.0000003372502
 31
0.0
  0
LINE
  5
F8
330
5C
100
AcDbEntity
  8
0
  6
Continuous
 62
     7
100
AcDbLine
 10
-232.0000002383986
 20
-167.0000003372502
 30
0.0
 11
-232.0000002383986
 21
-158.7000003372503
 31
0.0
  0
LINE
  5
F9
330
5C
100
AcDbEntity
  8
0
  6
Continuous
 62
     7
100
AcDbLine
 10
-228.0000002383986
 20
-163.5000003372502
 30
0.0
 11
-228.0000002383986
 21
-167.0000003372502
 31
0.0
  0
LINE
  5
FA
330
5C
100
AcDbEntity
  8
0
  6
Continuous
 62
     7
100
AcDbLine
 10
-228.0000002383986
 20
-158.7000003372503
 30
0.0
 11
-228.0000002383986
 21
-163.5000003372502
 31
0.0
  0
LINE
  5
FB
330
5C
100
AcDbEntity
  8
0
  6
Continuous
 62
     7
100
AcDbLine
 10
-228.0000002383986
 20
-167.0000003372502
 30
0.0
 11
-232.0000002383986
 21
-167.0000003372502
 31
0.0
  0
LINE
  5
FC
330
5C
100
AcDbEntity
  8
0
  6
Continuous
 62
     7
100
AcDbLine
 10
-228.0000002383986
 20
-147.0982914076816
 30
0.0
 11
-228.0000002383986
 21
-158.7000003372503
 31
0.0
  0
LINE
  5
FD
330
5C
100
AcDbEntity
  8
0
  6
Continuous
 62
     7
100
AcDbLine
 10
-228.0000002383986
 20
-145.0000003372502
 30
0.0
 11
-228.0000002383986
 21
-147.0982914076816
 31
0.0
  0
LINE
  5
FE
330
5C
100
AcDbEntity
  8
0
  6
Continuous
 62
     7
100
AcDbLine
 10
-228.0000002383986
 20
-167.0000003372502
 30
0.0
 11
-222.1000002383985
 21
-167.0000003372502
 31
0.0
  0
LINE
  5
FF
330
5C
100
AcDbEntity
  8
0
  6
Continuous
 62
     7
100
AcDbLine
 10
-232.0000002383986
 20
-158.7000003372503
 30
0.0
 11
-228.0000002383986
 21
-158.7000003372503
 31
0.0
  0
LINE
  5
100
330
5C
100
AcDbEntity
  8
0
  6
Continuous
 62
     7
100
AcDbLine
 10
-232.0000002383986
 20
-158.7000003372503
 30
0.0
 11
-232.0000002383986
 21
-147.0982914076816
 31
0.0
  0
ENDBLK
  5
5E
330
5C
100
AcDbEntity
  8
0
100
AcDbBlockEnd
  0
BLOCK
  5
61
330
5F
100
AcDbEntity
  8
0
100
AcDbBlockBegin
  2
Left1
 70
     0
 10
-227.0500004291434
 20
-155.99999999994
 30
0.0
  3
Left1
  1

  0
INSERT
  5
60
330
5F
100
AcDbEntity
  8
0
100
AcDbBlockReference
  2
D_MSB_1_5_F-select__4
 10
-232.0000002383986
 20
-167.0000003372502
 30
0.0
  0
DIMENSION
  5
10B
330
5F
100
AcDbEntity
  8
1
100
AcDbDimension
  2
*D20
 10
-232.0000002383986
 20
-177.0000003372502
 30
0.0
 11
-227.1440794269839
 21
-173.5750003372502
 31
0.0
 70
    32
  1
<>
 71
     5
 42
-1.0
 53
0.00013888888889
  3
ME10_DIM_13
100
AcDbAlignedDimension
 13
-222.1000002383985
 23
-163.5000003372502
 33
0.0
 14
-232.0000002383986
 24
-167.0000003372502
 34
0.0
100
AcDbRotatedDimension
  0
ENDBLK
  5
62
330
5F
100
AcDbEntity
  8
0
100
AcDbBlockEnd
  0
BLOCK
  5
64
330
63
100
AcDbEntity
  8
0
100
AcDbBlockBegin
  2
D_MSB_1_5_F-select__5
 70
     0
 10
-352.8999997616015
 20
-167.0000003372503
 30
0.0
  3
D_MSB_1_5_F-select__5
  1

  0
LINE
  5
10C
330
63
100
AcDbEntity
  8
0
  6
Continuous
 62
     7
100
AcDbLine
 10
-346.9999997616015
 20
-147.0982914076816
 30
0.0
 11
-346.9999997616015
 21
-145.0000003372503
 31
0.0
  0
LINE
  5
10D
330
63
100
AcDbEntity
  8
0
  6
Continuous
 62
     7
100
AcDbLine
 10
-346.9999997616015
 20
-147.0982914076816
 30
0.0
 11
-342.9999997616015
 21
-147.0982914076816
 31
0.0
  0
LINE
  5
10E
330
63
100
AcDbEntity
  8
0
  6
Continuous
 62
     7
100
AcDbLine
 10
-342.9999997616015
 20
-145.0000003372503
 30
0.0
 11
-346.9999997616015
 21
-145.0000003372503
 31
0.0
  0
LINE
  5
10F
330
63
100
AcDbEntity
  8
0
  6
Continuous
 62
     7
100
AcDbLine
 10
-346.9999997616015
 20
-167.0000003372503
 30
0.0
 11
-342.9999997616015
 21
-167.0000003372503
 31
0.0
  0
LINE
  5
110
330
63
100
AcDbEntity
  8
0
  6
Continuous
 62
     7
100
AcDbLine
 10
-346.9999997616015
 20
-163.5000003372503
 30
0.0
 11
-346.9999997616015
 21
-158.7000003372503
 31
0.0
  0
LINE
  5
111
330
63
100
AcDbEntity
  8
0
  6
Continuous
 62
     7
100
AcDbLine
 10
-346.9999997616015
 20
-167.0000003372503
 30
0.0
 11
-346.9999997616015
 21
-163.5000003372503
 31
0.0
  0
LINE
  5
112
330
63
100
AcDbEntity
  8
0
  6
Continuous
 62
     7
100
AcDbLine
 10
-352.8999997616015
 20
-163.5000003372503
 30
0.0
 11
-352.8999997616015
 21
-167.0000003372503
 31
0.0
  0
LINE
  5
113
330
63
100
AcDbEntity
  8
0
  6
Continuous
 62
     7
100
AcDbLine
 10
-352.8999997616015
 20
-163.5000003372503
 30
0.0
 11
-346.9999997616015
 21
-163.5000003372503
 31
0.0
  0
LINE
  5
114
330
63
100
AcDbEntity
  8
0
  6
Continuous
 62
     7
100
AcDbLine
 10
-352.8999997616015
 20
-167.0000003372503
 30
0.0
 11
-346.9999997616015
 21
-167.0000003372503
 31
0.0
  0
LINE
  5
115
330
63
100
AcDbEntity
  8
0
  6
Continuous
 62
     7
100
AcDbLine
 10
-346.9999997616015
 20
-158.7000003372503
 30
0.0
 11
-346.9999997616015
 21
-147.0982914076816
 31
0.0
  0
LINE
  5
116
330
63
100
AcDbEntity
  8
0
  6
Continuous
 62
     7
100
AcDbLine
 10
-342.9999997616015
 20
-158.7000003372503
 30
0.0
 11
-346.9999997616015
 21
-158.7000003372503
 31
0.0
  0
LINE
  5
117
330
63
100
AcDbEntity
  8
0
  6
Continuous
 62
     7
100
AcDbLine
 10
-342.9999997616015
 20
-158.7000003372503
 30
0.0
 11
-342.9999997616015
 21
-167.0000003372503
 31
0.0
  0
LINE
  5
118
330
63
100
AcDbEntity
  8
0
  6
Continuous
 62
     7
100
AcDbLine
 10
-342.9999997616015
 20
-145.0000003372503
 30
0.0
 11
-342.9999997616015
 21
-147.0982914076816
 31
0.0
  0
LINE
  5
119
330
63
100
AcDbEntity
  8
0
  6
Continuous
 62
     7
100
AcDbLine
 10
-342.9999997616015
 20
-147.0982914076816
 30
0.0
 11
-342.9999997616015
 21
-158.7000003372503
 31
0.0
  0
ENDBLK
  5
65
330
63
100
AcDbEntity
  8
0
100
AcDbBlockEnd
  0
BLOCK
  5
68
330
66
100
AcDbEntity
  8
0
100
AcDbBlockBegin
  2
Right1
 70
     0
 10
-347.9499995708567
 20
-155.99999999994
 30
0.0
  3
Right1
  1

  0
INSERT
  5
67
330
66
100
AcDbEntity
  8
0
100
AcDbBlockReference
  2
D_MSB_1_5_F-select__5
 10
-352.8999997616015
 20
-167.0000003372503
 30
0.0
  0
ENDBLK
  5
69
330
66
100
AcDbEntity
  8
0
100
AcDbBlockEnd
  0
BLOCK
  5
6B
330
6A
100
AcDbEntity
  8
0
100
AcDbBlockBegin
  2
D_MSB_1_5_F-select__6
 70
     0
 10
-295.0000001793197
 20
-222.8999997019975
 30
0.0
  3
D_MSB_1_5_F-select__6
  1

  0
LINE
  5
11A
330
6A
100
AcDbEntity
  8
0
  6
Continuous
 62
     7
100
AcDbLine
 10
-283.1000001793176
 20
-212.9999997019967
 30
0.0
 11
-274.9000001793179
 21
-212.9999997019967
 31
0.0
  0
LINE
  5
11B
330
6A
100
AcDbEntity
  8
0
  6
Continuous
 62
     7
100
AcDbLine
 10
-274.9000001793179
 20
-212.9999997019967
 30
0.0
 11
-263.0000001793159
 21
-212.9999997019967
 31
0.0
  0
LINE
  5
11C
330
6A
100
AcDbEntity
  8
0
  6
Continuous
 62
     7
100
AcDbLine
 10
-295.0000001793197
 20
-212.9999997019967
 30
0.0
 11
-283.1000001793176
 21
-212.9999997019967
 31
0.0
  0
LINE
  5
11D
330
6A
100
AcDbEntity
  8
0
  6
Continuous
 62
     7
100
AcDbLine
 10
-283.1000001793175
 20
-216.9999997019967
 30
0.0
 11
-284.0000001793177
 21
-216.9999997019967
 31
0.0
  0
LINE
  5
11E
330
6A
100
AcDbEntity
  8
0
  6
Continuous
 62
     7
100
AcDbLine
 10
-283.1000001793175
 20
-216.9999997019967
 30
0.0
 11
-283.1000001793176
 21
-212.9999997019967
 31
0.0
  0
LINE
  5
11F
330
6A
100
AcDbEntity
  8
0
  6
Continuous
 62
     7
100
AcDbLine
 10
-295.0000001793197
 20
-216.9999997019967
 30
0.0
 11
-295.0000001793197
 21
-212.9999997019967
 31
0.0
  0
LINE
  5
120
330
6A
100
AcDbEntity
  8
0
  6
Continuous
 62
     7
100
AcDbLine
 10
-274.9000001793179
 20
-216.9999997019967
 30
0.0
 11
-283.1000001793175
 21
-216.9999997019967
 31
0.0
  0
LINE
  5
121
330
6A
100
AcDbEntity
  8
0
  6
Continuous
 62
     7
100
AcDbLine
 10
-263.0000001793159
 20
-216.9999997019967
 30
0.0
 11
-274.0000001793177
 21
-216.9999997019967
 31
0.0
  0
LINE
  5
122
330
6A
100
AcDbEntity
  8
0
  6
Continuous
 62
     7
100
AcDbLine
 10
-284.0000001793177
 20
-216.9999997019967
 30
0.0
 11
-295.0000001793197
 21
-216.9999997019967
 31
0.0
  0
LINE
  5
123
330
6A
100
AcDbEntity
  8
0
  6
Continuous
 62
     7
100
AcDbLine
 10
-274.9000001793179
 20
-212.9999997019967
 30
0.0
 11
-274.9000001793179
 21
-216.9999997019967
 31
0.0
  0
LINE
  5
124
330
6A
100
AcDbEntity
  8
0
  6
Continuous
 62
     7
100
AcDbLine
 10
-263.0000001793159
 20
-216.9999997019967
 30
0.0
 11
-263.0000001793159
 21
-212.9999997019967
 31
0.0
  0
LINE
  5
125
330
6A
100
AcDbEntity
  8
0
  6
Continuous
 62
     7
100
AcDbLine
 10
-280.6000001793178
 20
-222.8999997019954
 30
0.0
 11
-282.9596709931377
 21
-222.8999997019975
 31
0.0
  0
LINE
  5
126
330
6A
100
AcDbEntity
  8
0
  6
Continuous
 62
     7
100
AcDbLine
 10
-274.0000001793177
 20
-216.9999997019967
 30
0.0
 11
-274.9000001793179
 21
-216.9999997019967
 31
0.0
  0
LINE
  5
127
330
6A
100
AcDbEntity
  8
0
  6
Continuous
 62
     7
100
AcDbLine
 10
-275.0403293654977
 20
-222.8999997019967
 30
0.0
 11
-274.0000001793177
 21
-216.9999997019967
 31
0.0
  0
LINE
  5
128
330
6A
100
AcDbEntity
  8
0
  6
Continuous
 62
     7
100
AcDbLine
 10
-277.4000001793178
 20
-222.8999997019968
 30
0.0
 11
-275.0403293654977
 21
-222.8999997019967
 31
0.0
  0
LINE
  5
129
330
6A
100
AcDbEntity
  8
0
  6
Continuous
 62
     7
100
AcDbLine
 10
-277.4000001793178
 20
-222.8999997019968
 30
0.0
 11
-277.4000001793178
 21
-219.7999997019967
 31
0.0
  0
LINE
  5
12A
330
6A
100
AcDbEntity
  8
0
  6
Continuous
 62
     7
100
AcDbLine
 10
-280.6000001793178
 20
-222.8999997019954
 30
0.0
 11
-280.6000001793178
 21
-219.7999997019967
 31
0.0
  0
LINE
  5
12B
330
6A
100
AcDbEntity
  8
0
  6
Continuous
 62
     7
100
AcDbLine
 10
-284.0000001793177
 20
-216.9999997019967
 30
0.0
 11
-282.9596709931377
 21
-222.8999997019975
 31
0.0
  0
ARC
  5
12C
330
6A
100
AcDbEntity
  8
0
  6
Continuous
 62
     7
100
AcDbCircle
 10
-279.0000001793177
 20
-219.7999997019967
 30
0.0
 40
1.599999999999909
100
AcDbArc
 50
0.0
 51
180.0
  0
ENDBLK
  5
6C
330
6A
100
AcDbEntity
  8
0
100
AcDbBlockEnd
  0
BLOCK
  5
6F
330
6D
100
AcDbEntity
  8
0
100
AcDbBlockBegin
  2
Top1
 70
     0
 10
-278.99999999998
 20
-217.9499995112519
 30
0.0
  3
Top1
  1

  0
INSERT
  5
6E
330
6D
100
AcDbEntity
  8
0
100
AcDbBlockReference
  2
D_MSB_1_5_F-select__6
 10
-295.0000001793197
 20
-222.8999997019975
 30
0.0
  0
DIMENSION
  5
139
330
6D
100
AcDbEntity
  8
1
100
AcDbDimension
  2
*D21
 10
-305.0000001793197
 20
-212.9999997019967
 30
0.0
 11
-308.2500001793197
 21
-206.7682809845399
 31
0.0
 70
    32
  1
<>
 71
     5
 42
-1.0
 53
90.0
  3
ME10_DIM_14
100
AcDbAlignedDimension
 13
-295.0000001793197
 23
-216.9999997019967
 33
0.0
 14
-295.0000001793197
 24
-212.9999997019967
 34
0.0
 50
90.0
100
AcDbRotatedDimension
  0
ENDBLK
  5
70
330
6D
100
AcDbEntity
  8
0
100
AcDbBlockEnd
  0
BLOCK
  5
72
330
71
100
AcDbEntity
  8
0
100
AcDbBlockBegin
  2
_rahmen
 70
     0
 10
-92.784296775861
 20
-303.3298053432702
 30
0.0
  3
_rahmen
  1

  0
LINE
  5
13A
330
71
100
AcDbEntity
  8
1
  6
DOT_CENTER
 62
     2
100
AcDbLine
 10
-218.3424464160484
 20
-277.2048053432702
 30
0.0
 11
-212.8424464160484
 21
-277.2048053432702
 31
0.0
  0
LINE
  5
13B
330
71
100
AcDbEntity
  8
1
  6
PHANTOM
 62
     2
100
AcDbLine
 10
-209.5924464160484
 20
-274.4548053432702
 30
0.0
 11
-209.5924464160484
 21
-279.9548053432702
 31
0.0
  0
LINE
  5
13C
330
71
100
AcDbEntity
  8
1
  6
PHANTOM
 62
     2
100
AcDbLine
 10
-206.8424464160484
 20
-277.2048053432702
 30
0.0
 11
-212.3424464160484
 21
-277.2048053432702
 31
0.0
  0
LINE
  5
13D
330
71
100
AcDbEntity
  8
1
  6
Continuous
 62
     7
100
AcDbLine
 10
-158.029101302611
 20
-289.8298053432702
 30
0.0
 11
-158.029101302611
 21
-281.3298053432701
 31
0.0
  0
LINE
  5
13E
330
71
100
AcDbEntity
  8
1
  6
Continuous
 62
     6
100
AcDbLine
 10
-185.9291013026111
 20
-281.3298053432701
 30
0.0
 11
-92.7842967758593
 21
-281.3298053432701
 31
0.0
  0
LINE
  5
13F
330
71
100
AcDbEntity
  8
1
  6
Continuous
 62
     7
100
AcDbLine
 10
-222.329101302611
 20
-281.3298053432701
 30
0.0
 11
-222.329101302611
 21
-272.8298053432701
 31
0.0
  0
LINE
  5
140
330
71
100
AcDbEntity
  8
1
  6
Continuous
 62
     7
100
AcDbLine
 10
-185.9291013026111
 20
-281.3298053432701
 30
0.0
 11
-185.9291013026111
 21
-272.8298053432701
 31
0.0
  0
LINE
  5
141
330
71
100
AcDbEntity
  8
1
  6
Continuous
 62
     7
100
AcDbLine
 10
-128.2027050575381
 20
-272.8298053432701
 30
0.0
 11
-128.2027050575381
 21
-281.3298053432701
 31
0.0
  0
LINE
  5
142
330
71
100
AcDbEntity
  8
1
  6
Continuous
 62
     7
100
AcDbLine
 10
-101.7027050575385
 20
-272.8298053432701
 30
0.0
 11
-101.7027050575385
 21
-281.3298053432701
 31
0.0
  0
LINE
  5
143
330
71
100
AcDbEntity
  8
1
  6
Continuous
 62
     6
100
AcDbLine
 10
-291.329101302611
 20
-298.3298053432701
 30
0.0
 11
-336.284296775861
 21
-298.3298053432701
 31
0.0
  0
LINE
  5
144
330
71
100
AcDbEntity
  8
1
  6
Continuous
 62
     7
100
AcDbLine
 10
-92.7842967758597
 20
-289.8298053432701
 30
0.0
 11
-185.9291013026111
 21
-289.8298053432701
 31
0.0
  0
LINE
  5
145
102
{ACAD_REACTORS
330
257
330
258
102
}
330
71
100
AcDbEntity
  8
0
  6
Continuous
 62
     2
100
AcDbLine
 10
-208.6216723608436
 20
-289.0295162276068
 30
0.0
 11
-208.6216723608436
 21
-288.1569992208035
 31
0.0
  0
LINE
  5
146
102
{ACAD_REACTORS
330
257
330
258
102
}
330
71
100
AcDbEntity
  8
0
  6
Continuous
 62
     2
100
AcDbLine
 10
-208.6216723608436
 20
-289.9892849350897
 30
0.0
 11
-208.6216723608436
 21
-290.8618019418929
 31
0.0
  0
LINE
  5
147
102
{ACAD_REACTORS
330
259
330
25A
102
}
330
71
100
AcDbEntity
  8
0
  6
Continuous
 62
     2
100
AcDbLine
 10
-193.2886282245531
 20
-288.7677611255663
 30
0.0
 11
-192.184988924985
 21
-288.7677611255663
 31
0.0
  0
LINE
  5
148
102
{ACAD_REACTORS
330
259
330
25A
102
}
330
71
100
AcDbEntity
  8
0
  6
Continuous
 62
     2
100
AcDbLine
 10
-192.5189708815917
 20
-289.9892849350902
 30
0.0
 11
-192.5189708815917
 21
-290.8618019418935
 31
0.0
  0
LINE
  5
149
102
{ACAD_REACTORS
330
263
330
264
102
}
330
71
100
AcDbEntity
  8
0
  6
Continuous
 62
     2
100
AcDbLine
 10
-194.3797274969716
 20
-287.6771148670795
 30
0.0
 11
-192.9817744500313
 21
-286.0962558733045
 31
0.0
  0
LINE
  5
14A
102
{ACAD_REACTORS
330
263
330
264
102
}
330
71
100
AcDbEntity
  8
0
  6
Continuous
 62
     2
100
AcDbLine
 10
-194.2843040807988
 20
-284.6233053432683
 30
0.0
 11
-192.9817744500313
 21
-286.0962558733045
 31
0.0
  0
LINE
  5
14B
102
{ACAD_REACTORS
330
263
330
264
102
}
330
71
100
AcDbEntity
  8
0
  6
Continuous
 62
     2
100
AcDbLine
 10
-191.6792448192649
 20
-284.6233053432683
 30
0.0
 11
-190.2765206015177
 21
-284.6233053432683
 31
0.0
  0
LINE
  5
14C
102
{ACAD_REACTORS
330
263
330
264
102
}
330
71
100
AcDbEntity
  8
0
  6
Continuous
 62
     2
100
AcDbLine
 10
-192.9770032792234
 20
-287.6771148670795
 30
0.0
 11
-192.2804123411577
 21
-286.8893830817858
 31
0.0
  0
LINE
  5
14D
102
{ACAD_REACTORS
330
263
330
264
102
}
330
71
100
AcDbEntity
  8
0
  6
Continuous
 62
     2
100
AcDbLine
 10
-192.9770032792234
 20
-287.6771148670795
 30
0.0
 11
-194.3797274969716
 21
-287.6771148670795
 31
0.0
  0
LINE
  5
14E
102
{ACAD_REACTORS
330
265
330
266
102
}
330
71
100
AcDbEntity
  8
0
  6
Continuous
 62
     2
100
AcDbLine
 10
-194.4990067671885
 20
-287.6771148670795
 30
0.0
 11
-195.7395111774414
 21
-287.6771148670795
 31
0.0
  0
LINE
  5
14F
102
{ACAD_REACTORS
330
267
330
268
102
}
330
71
100
AcDbEntity
  8
0
  6
Continuous
 62
     2
100
AcDbLine
 10
-196.6074907855965
 20
-289.8147815337293
 30
0.0
 11
-196.9076560227866
 21
-289.0469665677426
 31
0.0
  0
LINE
  5
150
102
{ACAD_REACTORS
330
267
330
268
102
}
330
71
100
AcDbEntity
  8
0
  6
Continuous
 62
     2
100
AcDbLine
 10
-197.207821259979
 20
-289.8147815337293
 30
0.0
 11
-196.6074907855965
 21
-289.8147815337293
 31
0.0
  0
LINE
  5
151
102
{ACAD_REACTORS
330
267
330
268
102
}
330
71
100
AcDbEntity
  8
0
  6
Continuous
 62
     2
100
AcDbLine
 10
-198.9258612748528
 20
-291.0363053432538
 30
0.0
 11
-197.6853568645998
 21
-291.0363053432538
 31
0.0
  0
LINE
  5
152
102
{ACAD_REACTORS
330
267
330
268
102
}
330
71
100
AcDbEntity
  8
0
  6
Continuous
 62
     2
100
AcDbLine
 10
-197.5279082279135
 20
-287.9824958194427
 30
0.0
 11
-196.2874038176608
 21
-287.9824958194427
 31
0.0
  0
LINE
  5
153
102
{ACAD_REACTORS
330
267
330
268
102
}
330
71
100
AcDbEntity
  8
0
  6
Continuous
 62
     2
100
AcDbLine
 10
-196.2874038176608
 20
-287.9824958194427
 30
0.0
 11
-194.8894507707205
 21
-291.0363053432538
 31
0.0
  0
LINE
  5
154
102
{ACAD_REACTORS
330
267
330
268
102
}
330
71
100
AcDbEntity
  8
0
  6
Continuous
 62
     2
100
AcDbLine
 10
-196.1299551809744
 20
-291.0363053432538
 30
0.0
 11
-196.3414352344502
 21
-290.4953447990359
 31
0.0
  0
LINE
  5
155
102
{ACAD_REACTORS
330
269
330
26A
102
}
330
71
100
AcDbEntity
  8
0
  6
Continuous
 62
     2
100
AcDbLine
 10
-200.2722743765604
 20
-291.0363053432538
 30
0.0
 11
-199.0794816743939
 21
-291.0363053432538
 31
0.0
  0
LINE
  5
156
102
{ACAD_REACTORS
330
269
330
26A
102
}
330
71
100
AcDbEntity
  8
0
  6
Continuous
 62
     2
100
AcDbLine
 10
-200.2722743765604
 20
-288.7677611255663
 30
0.0
 11
-200.2722743765604
 21
-291.0363053432538
 31
0.0
  0
LINE
  5
157
102
{ACAD_REACTORS
330
269
330
26A
102
}
330
71
100
AcDbEntity
  8
0
  6
Continuous
 62
     2
100
AcDbLine
 10
-201.083373414035
 20
-287.9824958194427
 30
0.0
 11
-201.083373414035
 21
-288.7677611255663
 31
0.0
  0
LINE
  5
158
102
{ACAD_REACTORS
330
26B
330
26C
102
}
330
71
100
AcDbEntity
  8
0
  6
Continuous
 62
     2
100
AcDbLine
 10
-199.6041595324624
 20
-287.6771148670795
 30
0.0
 11
-198.4113668302959
 21
-287.6771148670795
 31
0.0
  0
LINE
  5
159
102
{ACAD_REACTORS
330
26B
330
26C
102
}
330
71
100
AcDbEntity
  8
0
  6
Continuous
 62
     2
100
AcDbLine
 10
-197.1708624200419
 20
-285.9320808534735
 30
0.0
 11
-198.4113668302959
 21
-284.6233053432683
 31
0.0
  0
LINE
  5
15A
102
{ACAD_REACTORS
330
26B
330
26C
102
}
330
71
100
AcDbEntity
  8
0
  6
Continuous
 62
     2
100
AcDbLine
 10
-195.9780697178753
 20
-284.6233053432683
 30
0.0
 11
-197.1708624200419
 21
-284.6233053432683
 31
0.0
  0
LINE
  5
15B
102
{ACAD_REACTORS
330
26B
330
26C
102
}
330
71
100
AcDbEntity
  8
0
  6
Continuous
 62
     2
100
AcDbLine
 10
-195.9780697178753
 20
-287.6771148670795
 30
0.0
 11
-195.9780697178753
 21
-284.6233053432683
 31
0.0
  0
LINE
  5
15C
102
{ACAD_REACTORS
330
26B
330
26C
102
}
330
71
100
AcDbEntity
  8
0
  6
Continuous
 62
     2
100
AcDbLine
 10
-197.1708624200419
 20
-287.6771148670795
 30
0.0
 11
-195.9780697178753
 21
-287.6771148670795
 31
0.0
  0
LINE
  5
15D
102
{ACAD_REACTORS
330
26B
330
26C
102
}
330
71
100
AcDbEntity
  8
0
  6
Continuous
 62
     2
100
AcDbLine
 10
-198.4113668302959
 20
-286.3683393568748
 30
0.0
 11
-197.1708624200419
 21
-287.6771148670795
 31
0.0
  0
LINE
  5
15E
102
{ACAD_REACTORS
330
26D
330
26E
102
}
330
71
100
AcDbEntity
  8
0
  6
Continuous
 62
     2
100
AcDbLine
 10
-202.4193012404616
 20
-289.2912713296478
 30
0.0
 11
-203.6598056507145
 21
-287.9824958194427
 31
0.0
  0
LINE
  5
15F
102
{ACAD_REACTORS
330
26D
330
26E
102
}
330
71
100
AcDbEntity
  8
0
  6
Continuous
 62
     2
100
AcDbLine
 10
-202.4193012404616
 20
-287.9824958194427
 30
0.0
 11
-202.4193012404616
 21
-289.2912713296478
 31
0.0
  0
LINE
  5
160
102
{ACAD_REACTORS
330
26D
330
26E
102
}
330
71
100
AcDbEntity
  8
0
  6
Continuous
 62
     2
100
AcDbLine
 10
-201.2265085382952
 20
-287.9824958194427
 30
0.0
 11
-202.4193012404616
 21
-287.9824958194427
 31
0.0
  0
LINE
  5
161
102
{ACAD_REACTORS
330
26D
330
26E
102
}
330
71
100
AcDbEntity
  8
0
  6
Continuous
 62
     2
100
AcDbLine
 10
-201.2265085382952
 20
-291.0363053432538
 30
0.0
 11
-201.2265085382952
 21
-287.9824958194427
 31
0.0
  0
LINE
  5
162
102
{ACAD_REACTORS
330
26D
330
26E
102
}
330
71
100
AcDbEntity
  8
0
  6
Continuous
 62
     2
100
AcDbLine
 10
-203.6598056507145
 20
-289.7275298330492
 30
0.0
 11
-202.4193012404616
 21
-291.0363053432538
 31
0.0
  0
LINE
  5
163
102
{ACAD_REACTORS
330
26D
330
26E
102
}
330
71
100
AcDbEntity
  8
0
  6
Continuous
 62
     2
100
AcDbLine
 10
-203.6598056507145
 20
-291.0363053432538
 30
0.0
 11
-203.6598056507145
 21
-289.7275298330492
 31
0.0
  0
LINE
  5
164
102
{ACAD_REACTORS
330
25D
330
25E
102
}
330
71
100
AcDbEntity
  8
0
  6
Continuous
 62
     2
100
AcDbLine
 10
-201.178645899323
 20
-285.3213189487113
 30
0.0
 11
-199.8427180728953
 21
-285.3213189487113
 31
0.0
  0
LINE
  5
165
102
{ACAD_REACTORS
330
25D
330
25E
102
}
330
71
100
AcDbEntity
  8
0
  6
Continuous
 62
     2
100
AcDbLine
 10
-201.178645899323
 20
-286.979101261637
 30
0.0
 11
-201.178645899323
 21
-286.4992169078953
 31
0.0
  0
LINE
  5
166
102
{ACAD_REACTORS
330
25D
330
25E
102
}
330
71
100
AcDbEntity
  8
0
  6
Continuous
 62
     2
100
AcDbLine
 10
-199.8427180728953
 20
-286.979101261637
 30
0.0
 11
-201.178645899323
 21
-286.979101261637
 31
0.0
  0
LINE
  5
167
102
{ACAD_REACTORS
330
25D
330
25E
102
}
330
71
100
AcDbEntity
  8
0
  6
Continuous
 62
     2
100
AcDbLine
 10
-199.8427180728953
 20
-287.6771148670795
 30
0.0
 11
-199.8427180728953
 21
-286.979101261637
 31
0.0
  0
LINE
  5
168
102
{ACAD_REACTORS
330
25D
330
25E
102
}
330
71
100
AcDbEntity
  8
0
  6
Continuous
 62
     2
100
AcDbLine
 10
-202.9930377966763
 20
-287.6771148670795
 30
0.0
 11
-199.8427180728953
 21
-287.6771148670795
 31
0.0
  0
LINE
  5
169
102
{ACAD_REACTORS
330
25D
330
25E
102
}
330
71
100
AcDbEntity
  8
0
  6
Continuous
 62
     2
100
AcDbLine
 10
-202.9930377966763
 20
-284.6233053432683
 30
0.0
 11
-199.8427180728953
 21
-284.6233053432683
 31
0.0
  0
LINE
  5
16A
102
{ACAD_REACTORS
330
25D
330
25E
102
}
330
71
100
AcDbEntity
  8
0
  6
Continuous
 62
     2
100
AcDbLine
 10
-199.8427180728953
 20
-285.3213189487113
 30
0.0
 11
-199.8427180728953
 21
-284.6233053432683
 31
0.0
  0
LINE
  5
16B
102
{ACAD_REACTORS
330
26F
330
270
102
}
330
71
100
AcDbEntity
  8
0
  6
Continuous
 62
     2
100
AcDbLine
 10
-205.8543932918163
 20
-285.6921386766029
 30
0.0
 11
-205.8543932918163
 21
-284.6233053432683
 31
0.0
  0
LINE
  5
16C
102
{ACAD_REACTORS
330
26F
330
270
102
}
330
71
100
AcDbEntity
  8
0
  6
Continuous
 62
     2
100
AcDbLine
 10
-205.8543932918163
 20
-284.6233053432683
 30
0.0
 11
-204.6616005896499
 21
-284.6233053432683
 31
0.0
  0
LINE
  5
16D
102
{ACAD_REACTORS
330
26F
330
270
102
}
330
71
100
AcDbEntity
  8
0
  6
Continuous
 62
     2
100
AcDbLine
 10
-205.8543932918163
 20
-286.5428427582357
 30
0.0
 11
-206.9040508697238
 21
-286.5428427582357
 31
0.0
  0
LINE
  5
16E
102
{ACAD_REACTORS
330
26F
330
270
102
}
330
71
100
AcDbEntity
  8
0
  6
Continuous
 62
     2
100
AcDbLine
 10
-206.9040508697238
 20
-286.5428427582357
 30
0.0
 11
-206.9040508697238
 21
-287.6771148670795
 31
0.0
  0
LINE
  5
16F
102
{ACAD_REACTORS
330
26F
330
270
102
}
330
71
100
AcDbEntity
  8
0
  6
Continuous
 62
     2
100
AcDbLine
 10
-208.0968435718904
 20
-284.6233053432683
 30
0.0
 11
-208.0968435718904
 21
-287.6771148670795
 31
0.0
  0
LINE
  5
170
102
{ACAD_REACTORS
330
261
330
262
102
}
330
71
100
AcDbEntity
  8
0
  6
Continuous
 62
     2
100
AcDbLine
 10
-210.053023603444
 20
-285.9921388380506
 30
0.0
 11
-210.053023603444
 21
-285.2864111887084
 31
0.0
  0
LINE
  5
171
102
{ACAD_REACTORS
330
261
330
262
102
}
330
71
100
AcDbEntity
  8
0
  6
Continuous
 62
     2
100
AcDbLine
 10
-211.2935280136981
 20
-287.6771148670795
 30
0.0
 11
-210.053023603444
 21
-287.6771148670795
 31
0.0
  0
LINE
  5
172
102
{ACAD_REACTORS
330
261
330
262
102
}
330
71
100
AcDbEntity
  8
0
  6
Continuous
 62
     2
100
AcDbLine
 10
-210.053023603444
 20
-287.6771148670795
 30
0.0
 11
-210.053023603444
 21
-286.7340366259357
 31
0.0
  0
LINE
  5
173
102
{ACAD_REACTORS
330
25B
330
25C
102
}
330
71
100
AcDbEntity
  8
0
  6
Continuous
 62
     2
100
AcDbLine
 10
-215.5984738629095
 20
-290.3237497876969
 30
0.0
 11
-217.0743071239191
 21
-290.3237497876969
 31
0.0
  0
LINE
  5
174
102
{ACAD_REACTORS
330
25B
330
25C
102
}
330
71
100
AcDbEntity
  8
0
  6
Continuous
 62
     2
100
AcDbLine
 10
-218.0924464160484
 20
-285.0475499586703
 30
0.0
 11
-218.0924464160484
 21
-290.6120607278705
 31
0.0
  0
LINE
  5
175
102
{ACAD_REACTORS
330
25B
330
25C
102
}
330
71
100
AcDbEntity
  8
0
  6
Continuous
 62
     2
100
AcDbLine
 10
-217.6682018006656
 20
-284.6233053432865
 30
0.0
 11
-212.1948897099488
 21
-284.6233053432865
 31
0.0
  0
LINE
  5
176
102
{ACAD_REACTORS
330
25B
330
25C
102
}
330
71
100
AcDbEntity
  8
0
  6
Continuous
 62
     2
100
AcDbLine
 10
-211.7706450945649
 20
-285.0475499586703
 30
0.0
 11
-211.7706450945649
 21
-290.6120607278705
 31
0.0
  0
LINE
  5
177
102
{ACAD_REACTORS
330
25B
330
25C
102
}
330
71
100
AcDbEntity
  8
0
  6
Continuous
 62
     2
100
AcDbLine
 10
-212.1948897099488
 20
-291.0363053432538
 30
0.0
 11
-217.6682018006656
 21
-291.0363053432538
 31
0.0
  0
LINE
  5
178
102
{ACAD_REACTORS
330
25B
330
25C
102
}
330
71
100
AcDbEntity
  8
0
  6
Continuous
 62
     2
100
AcDbLine
 10
-215.2827569398329
 20
-290.0080328646202
 30
0.0
 11
-215.2827569398329
 21
-288.4772619330886
 31
0.0
  0
LINE
  5
179
102
{ACAD_REACTORS
330
25B
330
25C
102
}
330
71
100
AcDbEntity
  8
0
  6
Continuous
 62
     2
100
AcDbLine
 10
-215.2827569398329
 20
-286.2556024409636
 30
0.0
 11
-215.2827569398329
 21
-285.6515778219031
 31
0.0
  0
LINE
  5
17A
102
{ACAD_REACTORS
330
25B
330
25C
102
}
330
71
100
AcDbEntity
  8
0
  6
Continuous
 62
     2
100
AcDbLine
 10
-217.0743071239191
 20
-285.3358608988269
 30
0.0
 11
-215.5984738629095
 21
-285.3358608988269
 31
0.0
  0
LINE
  5
17B
102
{ACAD_REACTORS
330
25B
330
25C
102
}
330
71
100
AcDbEntity
  8
0
  6
Continuous
 62
     2
100
AcDbLine
 10
-217.3900240469948
 20
-285.6515778219031
 30
0.0
 11
-217.3900240469948
 21
-290.0080328646202
 31
0.0
  0
LINE
  5
17C
102
{ACAD_REACTORS
330
261
330
262
102
}
330
71
100
AcDbEntity
  8
0
  6
Continuous
 62
     2
100
AcDbLine
 10
-210.053023603444
 20
-286.7340366259357
 30
0.0
 11
-209.2942560156637
 21
-286.7340366259357
 31
0.0
  0
LINE
  5
17D
102
{ACAD_REACTORS
330
261
330
262
102
}
330
71
100
AcDbEntity
  8
0
  6
Continuous
 62
     2
100
AcDbLine
 10
-211.2935280136981
 20
-284.6233053432683
 30
0.0
 11
-209.2942560156637
 21
-284.6233053432683
 31
0.0
  0
LINE
  5
17E
102
{ACAD_REACTORS
330
261
330
262
102
}
330
71
100
AcDbEntity
  8
0
  6
Continuous
 62
     2
100
AcDbLine
 10
-211.2935280136981
 20
-284.6233053432683
 30
0.0
 11
-211.2935280136981
 21
-287.6771148670795
 31
0.0
  0
LINE
  5
17F
102
{ACAD_REACTORS
330
261
330
262
102
}
330
71
100
AcDbEntity
  8
0
  6
Continuous
 62
     2
100
AcDbLine
 10
-210.053023603444
 20
-285.9921388380506
 30
0.0
 11
-209.7357285419021
 21
-285.9921388380506
 31
0.0
  0
LINE
  5
180
102
{ACAD_REACTORS
330
261
330
262
102
}
330
71
100
AcDbEntity
  8
0
  6
Continuous
 62
     2
100
AcDbLine
 10
-210.053023603444
 20
-285.2864111887084
 30
0.0
 11
-209.7357285419021
 21
-285.2864111887084
 31
0.0
  0
LINE
  5
181
102
{ACAD_REACTORS
330
26F
330
270
102
}
330
71
100
AcDbEntity
  8
0
  6
Continuous
 62
     2
100
AcDbLine
 10
-206.9040508697238
 20
-285.6921386766029
 30
0.0
 11
-205.8543932918163
 21
-285.6921386766029
 31
0.0
  0
LINE
  5
182
102
{ACAD_REACTORS
330
26F
330
270
102
}
330
71
100
AcDbEntity
  8
0
  6
Continuous
 62
     2
100
AcDbLine
 10
-206.9040508697238
 20
-284.6233053432683
 30
0.0
 11
-206.9040508697238
 21
-285.6921386766029
 31
0.0
  0
LINE
  5
183
102
{ACAD_REACTORS
330
26F
330
270
102
}
330
71
100
AcDbEntity
  8
0
  6
Continuous
 62
     2
100
AcDbLine
 10
-208.0968435718904
 20
-284.6233053432683
 30
0.0
 11
-206.9040508697238
 21
-284.6233053432683
 31
0.0
  0
LINE
  5
184
102
{ACAD_REACTORS
330
26F
330
270
102
}
330
71
100
AcDbEntity
  8
0
  6
Continuous
 62
     2
100
AcDbLine
 10
-206.9040508697238
 20
-287.6771148670795
 30
0.0
 11
-208.0968435718904
 21
-287.6771148670795
 31
0.0
  0
LINE
  5
185
102
{ACAD_REACTORS
330
26F
330
270
102
}
330
71
100
AcDbEntity
  8
0
  6
Continuous
 62
     2
100
AcDbLine
 10
-205.8543932918163
 20
-287.6771148670795
 30
0.0
 11
-205.8543932918163
 21
-286.5428427582357
 31
0.0
  0
LINE
  5
186
102
{ACAD_REACTORS
330
26F
330
270
102
}
330
71
100
AcDbEntity
  8
0
  6
Continuous
 62
     2
100
AcDbLine
 10
-204.6616005896499
 20
-287.6771148670795
 30
0.0
 11
-205.8543932918163
 21
-287.6771148670795
 31
0.0
  0
LINE
  5
187
102
{ACAD_REACTORS
330
26F
330
270
102
}
330
71
100
AcDbEntity
  8
0
  6
Continuous
 62
     2
100
AcDbLine
 10
-204.6616005896499
 20
-284.6233053432683
 30
0.0
 11
-204.6616005896499
 21
-287.6771148670795
 31
0.0
  0
LINE
  5
188
102
{ACAD_REACTORS
330
25D
330
25E
102
}
330
71
100
AcDbEntity
  8
0
  6
Continuous
 62
     2
100
AcDbLine
 10
-201.178645899323
 20
-286.4992169078953
 30
0.0
 11
-199.8427180728953
 21
-286.4992169078953
 31
0.0
  0
LINE
  5
189
102
{ACAD_REACTORS
330
25D
330
25E
102
}
330
71
100
AcDbEntity
  8
0
  6
Continuous
 62
     2
100
AcDbLine
 10
-199.8427180728953
 20
-286.4992169078953
 30
0.0
 11
-199.8427180728953
 21
-285.801203302453
 31
0.0
  0
LINE
  5
18A
102
{ACAD_REACTORS
330
25D
330
25E
102
}
330
71
100
AcDbEntity
  8
0
  6
Continuous
 62
     2
100
AcDbLine
 10
-199.8427180728953
 20
-285.801203302453
 30
0.0
 11
-201.178645899323
 21
-285.801203302453
 31
0.0
  0
LINE
  5
18B
102
{ACAD_REACTORS
330
25D
330
25E
102
}
330
71
100
AcDbEntity
  8
0
  6
Continuous
 62
     2
100
AcDbLine
 10
-201.178645899323
 20
-285.801203302453
 30
0.0
 11
-201.178645899323
 21
-285.3213189487113
 31
0.0
  0
LINE
  5
18C
102
{ACAD_REACTORS
330
26D
330
26E
102
}
330
71
100
AcDbEntity
  8
0
  6
Continuous
 62
     2
100
AcDbLine
 10
-204.8525983528821
 20
-291.0363053432538
 30
0.0
 11
-203.6598056507145
 21
-291.0363053432538
 31
0.0
  0
LINE
  5
18D
102
{ACAD_REACTORS
330
26D
330
26E
102
}
330
71
100
AcDbEntity
  8
0
  6
Continuous
 62
     2
100
AcDbLine
 10
-202.4193012404616
 20
-291.0363053432538
 30
0.0
 11
-201.2265085382952
 21
-291.0363053432538
 31
0.0
  0
LINE
  5
18E
102
{ACAD_REACTORS
330
26D
330
26E
102
}
330
71
100
AcDbEntity
  8
0
  6
Continuous
 62
     2
100
AcDbLine
 10
-203.6598056507145
 20
-287.9824958194427
 30
0.0
 11
-204.8525983528821
 21
-287.9824958194427
 31
0.0
  0
LINE
  5
18F
102
{ACAD_REACTORS
330
26D
330
26E
102
}
330
71
100
AcDbEntity
  8
0
  6
Continuous
 62
     2
100
AcDbLine
 10
-204.8525983528821
 20
-287.9824958194427
 30
0.0
 11
-204.8525983528821
 21
-291.0363053432538
 31
0.0
  0
LINE
  5
190
102
{ACAD_REACTORS
330
26B
330
26C
102
}
330
71
100
AcDbEntity
  8
0
  6
Continuous
 62
     2
100
AcDbLine
 10
-197.1708624200419
 20
-284.6233053432683
 30
0.0
 11
-197.1708624200419
 21
-285.9320808534735
 31
0.0
  0
LINE
  5
191
102
{ACAD_REACTORS
330
26B
330
26C
102
}
330
71
100
AcDbEntity
  8
0
  6
Continuous
 62
     2
100
AcDbLine
 10
-198.4113668302959
 20
-284.6233053432683
 30
0.0
 11
-199.6041595324624
 21
-284.6233053432683
 31
0.0
  0
LINE
  5
192
102
{ACAD_REACTORS
330
26B
330
26C
102
}
330
71
100
AcDbEntity
  8
0
  6
Continuous
 62
     2
100
AcDbLine
 10
-199.6041595324624
 20
-284.6233053432683
 30
0.0
 11
-199.6041595324624
 21
-287.6771148670795
 31
0.0
  0
LINE
  5
193
102
{ACAD_REACTORS
330
26B
330
26C
102
}
330
71
100
AcDbEntity
  8
0
  6
Continuous
 62
     2
100
AcDbLine
 10
-198.4113668302959
 20
-287.6771148670795
 30
0.0
 11
-198.4113668302959
 21
-286.3683393568748
 31
0.0
  0
LINE
  5
194
102
{ACAD_REACTORS
330
269
330
26A
102
}
330
71
100
AcDbEntity
  8
0
  6
Continuous
 62
     2
100
AcDbLine
 10
-199.0794816743939
 20
-291.0363053432538
 30
0.0
 11
-199.0794816743939
 21
-288.7677611255663
 31
0.0
  0
LINE
  5
195
102
{ACAD_REACTORS
330
269
330
26A
102
}
330
71
100
AcDbEntity
  8
0
  6
Continuous
 62
     2
100
AcDbLine
 10
-199.0794816743939
 20
-288.7677611255663
 30
0.0
 11
-198.2683826369214
 21
-288.7677611255663
 31
0.0
  0
LINE
  5
196
102
{ACAD_REACTORS
330
269
330
26A
102
}
330
71
100
AcDbEntity
  8
0
  6
Continuous
 62
     2
100
AcDbLine
 10
-198.2683826369214
 20
-288.7677611255663
 30
0.0
 11
-198.2683826369214
 21
-287.9824958194427
 31
0.0
  0
LINE
  5
197
102
{ACAD_REACTORS
330
269
330
26A
102
}
330
71
100
AcDbEntity
  8
0
  6
Continuous
 62
     2
100
AcDbLine
 10
-198.2683826369214
 20
-287.9824958194427
 30
0.0
 11
-201.083373414035
 21
-287.9824958194427
 31
0.0
  0
LINE
  5
198
102
{ACAD_REACTORS
330
269
330
26A
102
}
330
71
100
AcDbEntity
  8
0
  6
Continuous
 62
     2
100
AcDbLine
 10
-201.083373414035
 20
-288.7677611255663
 30
0.0
 11
-200.2722743765604
 21
-288.7677611255663
 31
0.0
  0
LINE
  5
199
102
{ACAD_REACTORS
330
267
330
268
102
}
330
71
100
AcDbEntity
  8
0
  6
Continuous
 62
     2
100
AcDbLine
 10
-197.473876811124
 20
-290.4953447990359
 30
0.0
 11
-196.3414352344502
 21
-290.4953447990359
 31
0.0
  0
LINE
  5
19A
102
{ACAD_REACTORS
330
267
330
268
102
}
330
71
100
AcDbEntity
  8
0
  6
Continuous
 62
     2
100
AcDbLine
 10
-194.8894507707205
 20
-291.0363053432538
 30
0.0
 11
-196.1299551809744
 21
-291.0363053432538
 31
0.0
  0
LINE
  5
19B
102
{ACAD_REACTORS
330
267
330
268
102
}
330
71
100
AcDbEntity
  8
0
  6
Continuous
 62
     2
100
AcDbLine
 10
-197.5279082279135
 20
-287.9824958194427
 30
0.0
 11
-198.9258612748528
 21
-291.0363053432538
 31
0.0
  0
LINE
  5
19C
102
{ACAD_REACTORS
330
267
330
268
102
}
330
71
100
AcDbEntity
  8
0
  6
Continuous
 62
     2
100
AcDbLine
 10
-197.6853568645998
 20
-291.0363053432538
 30
0.0
 11
-197.473876811124
 21
-290.4953447990359
 31
0.0
  0
LINE
  5
19D
102
{ACAD_REACTORS
330
267
330
268
102
}
330
71
100
AcDbEntity
  8
0
  6
Continuous
 62
     2
100
AcDbLine
 10
-197.207821259979
 20
-289.8147815337293
 30
0.0
 11
-196.9076560227866
 21
-289.0469665677426
 31
0.0
  0
LINE
  5
19E
102
{ACAD_REACTORS
330
265
330
266
102
}
330
71
100
AcDbEntity
  8
0
  6
Continuous
 62
     2
100
AcDbLine
 10
-195.7395111774414
 20
-287.6771148670795
 30
0.0
 11
-195.7395111774414
 21
-284.6233053432683
 31
0.0
  0
LINE
  5
19F
102
{ACAD_REACTORS
330
265
330
266
102
}
330
71
100
AcDbEntity
  8
0
  6
Continuous
 62
     2
100
AcDbLine
 10
-194.4990067671885
 20
-284.6233053432683
 30
0.0
 11
-194.4990067671885
 21
-287.6771148670795
 31
0.0
  0
LINE
  5
1A0
102
{ACAD_REACTORS
330
265
330
266
102
}
330
71
100
AcDbEntity
  8
0
  6
Continuous
 62
     2
100
AcDbLine
 10
-195.7395111774414
 20
-284.6233053432683
 30
0.0
 11
-194.4990067671885
 21
-284.6233053432683
 31
0.0
  0
LINE
  5
1A1
102
{ACAD_REACTORS
330
263
330
264
102
}
330
71
100
AcDbEntity
  8
0
  6
Continuous
 62
     2
100
AcDbLine
 10
-192.2804123411577
 20
-286.8893830817858
 30
0.0
 11
-191.5838214030922
 21
-287.6771148670795
 31
0.0
  0
LINE
  5
1A2
102
{ACAD_REACTORS
330
263
330
264
102
}
330
71
100
AcDbEntity
  8
0
  6
Continuous
 62
     2
100
AcDbLine
 10
-191.5838214030922
 20
-287.6771148670795
 30
0.0
 11
-190.1810971853439
 21
-287.6771148670795
 31
0.0
  0
LINE
  5
1A3
102
{ACAD_REACTORS
330
263
330
264
102
}
330
71
100
AcDbEntity
  8
0
  6
Continuous
 62
     2
100
AcDbLine
 10
-191.5790502322842
 20
-286.0962558733045
 30
0.0
 11
-190.1810971853439
 21
-287.6771148670795
 31
0.0
  0
LINE
  5
1A4
102
{ACAD_REACTORS
330
263
330
264
102
}
330
71
100
AcDbEntity
  8
0
  6
Continuous
 62
     2
100
AcDbLine
 10
-191.5790502322842
 20
-286.0962558733045
 30
0.0
 11
-190.2765206015177
 21
-284.6233053432683
 31
0.0
  0
LINE
  5
1A5
102
{ACAD_REACTORS
330
263
330
264
102
}
330
71
100
AcDbEntity
  8
0
  6
Continuous
 62
     2
100
AcDbLine
 10
-192.2804123411577
 20
-285.3031286648238
 30
0.0
 11
-191.6792448192649
 21
-284.6233053432683
 31
0.0
  0
LINE
  5
1A6
102
{ACAD_REACTORS
330
263
330
264
102
}
330
71
100
AcDbEntity
  8
0
  6
Continuous
 62
     2
100
AcDbLine
 10
-192.8815798630495
 20
-284.6233053432683
 30
0.0
 11
-192.2804123411577
 21
-285.3031286648238
 31
0.0
  0
LINE
  5
1A7
102
{ACAD_REACTORS
330
263
330
264
102
}
330
71
100
AcDbEntity
  8
0
  6
Continuous
 62
     2
100
AcDbLine
 10
-192.8815798630495
 20
-284.6233053432683
 30
0.0
 11
-194.2843040807988
 21
-284.6233053432683
 31
0.0
  0
LINE
  5
1A8
102
{ACAD_REACTORS
330
259
330
25A
102
}
330
71
100
AcDbEntity
  8
0
  6
Continuous
 62
     2
100
AcDbLine
 10
-192.184988924985
 20
-291.0363053432538
 30
0.0
 11
-190.9921962228173
 21
-291.0363053432538
 31
0.0
  0
LINE
  5
1A9
102
{ACAD_REACTORS
330
259
330
25A
102
}
330
71
100
AcDbEntity
  8
0
  6
Continuous
 62
     2
100
AcDbLine
 10
-190.9921962228173
 20
-291.0363053432538
 30
0.0
 11
-190.9921962228173
 21
-288.7677611255663
 31
0.0
  0
LINE
  5
1AA
102
{ACAD_REACTORS
330
259
330
25A
102
}
330
71
100
AcDbEntity
  8
0
  6
Continuous
 62
     2
100
AcDbLine
 10
-190.9921962228173
 20
-288.7677611255663
 30
0.0
 11
-190.1810971853439
 21
-288.7677611255663
 31
0.0
  0
LINE
  5
1AB
102
{ACAD_REACTORS
330
259
330
25A
102
}
330
71
100
AcDbEntity
  8
0
  6
Continuous
 62
     2
100
AcDbLine
 10
-190.1810971853439
 20
-288.7677611255663
 30
0.0
 11
-190.1810971853439
 21
-287.9824958194427
 31
0.0
  0
LINE
  5
1AC
102
{ACAD_REACTORS
330
259
330
25A
102
}
330
71
100
AcDbEntity
  8
0
  6
Continuous
 62
     2
100
AcDbLine
 10
-193.5660427039726
 20
-287.9824958194432
 30
0.0
 11
-190.1810971853439
 21
-287.9824958194427
 31
0.0
  0
LINE
  5
1AD
102
{ACAD_REACTORS
330
259
330
25A
102
}
330
71
100
AcDbEntity
  8
0
  6
Continuous
 62
     2
100
AcDbLine
 10
-192.184988924985
 20
-288.7677611255663
 30
0.0
 11
-192.184988924985
 21
-291.0363053432538
 31
0.0
  0
LINE
  5
1AE
102
{ACAD_REACTORS
330
25B
330
25C
102
}
330
71
100
AcDbEntity
  8
0
  6
Continuous
 62
     2
100
AcDbLine
 10
-214.8144753604642
 20
-289.0574251936893
 30
0.0
 11
-214.8144753604642
 21
-288.4755737869942
 31
0.0
  0
LINE
  5
1AF
102
{ACAD_REACTORS
330
25B
330
25C
102
}
330
71
100
AcDbEntity
  8
0
  6
Continuous
 62
     2
100
AcDbLine
 10
-214.8144753604642
 20
-286.257290587058
 30
0.0
 11
-214.8144753604642
 21
-285.6517552985512
 31
0.0
  0
LINE
  5
1B0
330
71
100
AcDbEntity
  8
1
  6
Continuous
 62
     6
100
AcDbLine
 10
-236.284296775861
 20
-298.3298053432701
 30
0.0
 11
-222.329101302611
 21
-298.3298053432702
 31
0.0
  0
LINE
  5
1B1
330
71
100
AcDbEntity
  8
1
  6
Continuous
 62
     6
100
AcDbLine
 10
-286.2842967758612
 20
-298.3298053432701
 30
0.0
 11
-291.329101302611
 21
-298.3298053432701
 31
0.0
  0
LINE
  5
1B2
330
71
100
AcDbEntity
  8
1
  6
Continuous
 62
     6
100
AcDbLine
 10
-136.284296775861
 20
-298.3298053432701
 30
0.0
 11
-92.784296775861
 21
-298.3298053432701
 31
0.0
  0
LINE
  5
1B3
330
71
100
AcDbEntity
  8
1
  6
Continuous
 62
     6
100
AcDbLine
 10
-186.284296775861
 20
-298.3298053432701
 30
0.0
 11
-204.129101302611
 21
-298.3298053432701
 31
0.0
  0
LINE
  5
1B4
330
71
100
AcDbEntity
  8
1
  6
Continuous
 62
     2
100
AcDbLine
 10
-92.784296775861
 20
-298.3298053432701
 30
0.0
 11
-87.784296775862
 21
-298.3298053432701
 31
0.0
  0
LINE
  5
1B5
330
71
100
AcDbEntity
  8
1
  6
Continuous
 62
     2
100
AcDbLine
 10
-92.784296775861
 20
-298.3298053432701
 30
0.0
 11
-92.784296775861
 21
-303.3298053432702
 31
0.0
  0
LINE
  5
1B6
330
71
100
AcDbEntity
  8
1
  6
Continuous
 62
     6
100
AcDbLine
 10
-222.329101302611
 20
-281.3298053432701
 30
0.0
 11
-185.9291013026111
 21
-281.3298053432701
 31
0.0
  0
LINE
  5
1B7
330
71
100
AcDbEntity
  8
1
  6
Continuous
 62
     2
100
AcDbLine
 10
-87.784296775862
 20
-303.3298053432702
 30
0.0
 11
-87.784296775862
 21
-298.3298053432701
 31
0.0
  0
LINE
  5
1B8
330
71
100
AcDbEntity
  8
1
  6
Continuous
 62
     2
100
AcDbLine
 10
-87.784296775862
 20
-303.3298053432702
 30
0.0
 11
-92.784296775861
 21
-303.3298053432702
 31
0.0
  0
LINE
  5
1B9
330
71
100
AcDbEntity
  8
1
  6
Continuous
 62
     2
100
AcDbLine
 10
-92.784296775861
 20
-303.3298053432702
 30
0.0
 11
-136.284296775861
 21
-303.3298053432702
 31
0.0
  0
LINE
  5
1BA
330
71
100
AcDbEntity
  8
1
  6
Continuous
 62
     6
100
AcDbLine
 10
-92.7842967758593
 20
-281.3298053432701
 30
0.0
 11
-92.7842967758601
 21
-248.32980534327
 31
0.0
  0
LINE
  5
1BB
330
71
100
AcDbEntity
  8
1
  6
Continuous
 62
     2
100
AcDbLine
 10
-87.784296775862
 20
-93.3298053432701
 30
0.0
 11
-236.284296775861
 21
-93.3298053432701
 31
0.0
  0
LINE
  5
1BC
330
71
100
AcDbEntity
  8
1
  6
Continuous
 62
     6
100
AcDbLine
 10
-92.784296775862
 20
-113.3298053432701
 30
0.0
 11
-379.7842967758601
 21
-113.3298053432701
 31
0.0
  0
LINE
  5
1BD
330
71
100
AcDbEntity
  8
1
  6
Continuous
 62
     2
100
AcDbLine
 10
-92.7842967758601
 20
-248.32980534327
 30
0.0
 11
-87.784296775862
 21
-248.32980534327
 31
0.0
  0
LINE
  5
1BE
330
71
100
AcDbEntity
  8
1
  6
Continuous
 62
     6
100
AcDbLine
 10
-92.7842967758601
 20
-248.32980534327
 30
0.0
 11
-92.7842967758606
 21
-198.3298053432702
 31
0.0
  0
LINE
  5
1BF
330
71
100
AcDbEntity
  8
1
  6
Continuous
 62
     2
100
AcDbLine
 10
-87.784296775862
 20
-248.32980534327
 30
0.0
 11
-87.784296775862
 21
-198.3298053432702
 31
0.0
  0
LINE
  5
1C0
330
71
100
AcDbEntity
  8
1
  6
Continuous
 62
     2
100
AcDbLine
 10
-92.7842967758606
 20
-198.3298053432702
 30
0.0
 11
-87.784296775862
 21
-198.3298053432702
 31
0.0
  0
LINE
  5
1C1
330
71
100
AcDbEntity
  8
1
  6
Continuous
 62
     6
100
AcDbLine
 10
-92.7842967758606
 20
-198.3298053432702
 30
0.0
 11
-92.7842967758618
 21
-148.3298053432701
 31
0.0
  0
LINE
  5
1C2
330
71
100
AcDbEntity
  8
1
  6
Continuous
 62
     2
100
AcDbLine
 10
-87.784296775862
 20
-198.3298053432702
 30
0.0
 11
-87.784296775862
 21
-148.3298053432701
 31
0.0
  0
LINE
  5
1C3
330
71
100
AcDbEntity
  8
1
  6
Continuous
 62
     2
100
AcDbLine
 10
-92.7842967758618
 20
-148.3298053432701
 30
0.0
 11
-87.784296775862
 21
-148.3298053432701
 31
0.0
  0
LINE
  5
1C4
330
71
100
AcDbEntity
  8
1
  6
Continuous
 62
     6
100
AcDbLine
 10
-92.7842967758618
 20
-148.3298053432701
 30
0.0
 11
-92.784296775862
 21
-113.3298053432701
 31
0.0
  0
LINE
  5
1C5
330
71
100
AcDbEntity
  8
1
  6
Continuous
 62
     2
100
AcDbLine
 10
-87.784296775862
 20
-148.3298053432701
 30
0.0
 11
-87.784296775862
 21
-93.3298053432701
 31
0.0
  0
LINE
  5
1C6
330
71
100
AcDbEntity
  8
1
  6
Continuous
 62
     2
100
AcDbLine
 10
-87.784296775862
 20
-298.3298053432701
 30
0.0
 11
-87.784296775862
 21
-248.32980534327
 31
0.0
  0
LINE
  5
1C7
330
71
100
AcDbEntity
  8
1
  6
Continuous
 62
     2
100
AcDbLine
 10
-236.284296775861
 20
-93.3298053432701
 30
0.0
 11
-384.7842967758601
 21
-93.3298053432701
 31
0.0
  0
LINE
  5
1C8
330
71
100
AcDbEntity
  8
1
  6
Continuous
 62
     2
100
AcDbLine
 10
-236.284296775861
 20
-93.3298053432701
 30
0.0
 11
-236.284296775861
 21
-102.5384971879714
 31
0.0
  0
LINE
  5
1C9
330
71
100
AcDbEntity
  8
1
  6
Continuous
 62
     2
100
AcDbLine
 10
-384.7842967758601
 20
-303.3298053432702
 30
0.0
 11
-379.7842967758591
 21
-303.3298053432702
 31
0.0
  0
LINE
  5
1CA
330
71
100
AcDbEntity
  8
1
  6
Continuous
 62
     2
100
AcDbLine
 10
-384.7842967758601
 20
-93.3298053432701
 30
0.0
 11
-384.7842967758601
 21
-148.3298053432701
 31
0.0
  0
LINE
  5
1CB
330
71
100
AcDbEntity
  8
1
  6
Continuous
 62
     6
100
AcDbLine
 10
-379.7842967758601
 20
-113.3298053432701
 30
0.0
 11
-379.78429677586
 21
-148.3298053432701
 31
0.0
  0
LINE
  5
1CC
330
71
100
AcDbEntity
  8
1
  6
Continuous
 62
     2
100
AcDbLine
 10
-384.7842967758601
 20
-148.3298053432701
 30
0.0
 11
-379.78429677586
 21
-148.3298053432701
 31
0.0
  0
LINE
  5
1CD
330
71
100
AcDbEntity
  8
1
  6
Continuous
 62
     2
100
AcDbLine
 10
-384.7842967758601
 20
-148.3298053432701
 30
0.0
 11
-384.7842967758601
 21
-198.3298053432702
 31
0.0
  0
LINE
  5
1CE
330
71
100
AcDbEntity
  8
1
  6
Continuous
 62
     6
100
AcDbLine
 10
-379.78429677586
 20
-148.3298053432701
 30
0.0
 11
-379.7842967758595
 21
-198.3298053432702
 31
0.0
  0
LINE
  5
1CF
330
71
100
AcDbEntity
  8
1
  6
Continuous
 62
     2
100
AcDbLine
 10
-384.7842967758601
 20
-198.3298053432702
 30
0.0
 11
-379.7842967758595
 21
-198.3298053432702
 31
0.0
  0
LINE
  5
1D0
330
71
100
AcDbEntity
  8
1
  6
Continuous
 62
     2
100
AcDbLine
 10
-384.7842967758601
 20
-198.3298053432702
 30
0.0
 11
-384.7842967758601
 21
-248.32980534327
 31
0.0
  0
LINE
  5
1D1
330
71
100
AcDbEntity
  8
1
  6
Continuous
 62
     6
100
AcDbLine
 10
-379.7842967758595
 20
-198.3298053432702
 30
0.0
 11
-379.7842967758593
 21
-248.32980534327
 31
0.0
  0
LINE
  5
1D2
330
71
100
AcDbEntity
  8
1
  6
Continuous
 62
     2
100
AcDbLine
 10
-384.7842967758601
 20
-248.32980534327
 30
0.0
 11
-379.7842967758593
 21
-248.32980534327
 31
0.0
  0
LINE
  5
1D3
330
71
100
AcDbEntity
  8
1
  6
Continuous
 62
     2
100
AcDbLine
 10
-384.7842967758601
 20
-248.32980534327
 30
0.0
 11
-384.7842967758601
 21
-298.3298053432701
 31
0.0
  0
LINE
  5
1D4
330
71
100
AcDbEntity
  8
1
  6
Continuous
 62
     6
100
AcDbLine
 10
-379.7842967758593
 20
-248.32980534327
 30
0.0
 11
-379.7842967758591
 21
-298.3298053432701
 31
0.0
  0
LINE
  5
1D5
330
71
100
AcDbEntity
  8
1
  6
Continuous
 62
     2
100
AcDbLine
 10
-336.284296775861
 20
-303.3298053432702
 30
0.0
 11
-336.284296775861
 21
-298.3298053432701
 31
0.0
  0
LINE
  5
1D6
330
71
100
AcDbEntity
  8
1
  6
Continuous
 62
     2
100
AcDbLine
 10
-336.284296775861
 20
-303.3298053432702
 30
0.0
 11
-286.2842967758612
 21
-303.3298053432702
 31
0.0
  0
LINE
  5
1D7
330
71
100
AcDbEntity
  8
1
  6
Continuous
 62
     2
100
AcDbLine
 10
-286.2842967758612
 20
-303.3298053432702
 30
0.0
 11
-286.2842967758612
 21
-298.3298053432701
 31
0.0
  0
LINE
  5
1D8
330
71
100
AcDbEntity
  8
1
  6
Continuous
 62
     2
100
AcDbLine
 10
-286.2842967758612
 20
-303.3298053432702
 30
0.0
 11
-236.284296775861
 21
-303.3298053432702
 31
0.0
  0
LINE
  5
1D9
330
71
100
AcDbEntity
  8
1
  6
Continuous
 62
     2
100
AcDbLine
 10
-236.284296775861
 20
-303.3298053432702
 30
0.0
 11
-236.284296775861
 21
-298.3298053432701
 31
0.0
  0
LINE
  5
1DA
330
71
100
AcDbEntity
  8
1
  6
Continuous
 62
     2
100
AcDbLine
 10
-236.284296775861
 20
-303.3298053432702
 30
0.0
 11
-186.284296775861
 21
-303.3298053432702
 31
0.0
  0
LINE
  5
1DB
330
71
100
AcDbEntity
  8
1
  6
Continuous
 62
     2
100
AcDbLine
 10
-186.284296775861
 20
-303.3298053432702
 30
0.0
 11
-186.284296775861
 21
-298.3298053432701
 31
0.0
  0
LINE
  5
1DC
330
71
100
AcDbEntity
  8
1
  6
Continuous
 62
     2
100
AcDbLine
 10
-136.284296775861
 20
-303.3298053432702
 30
0.0
 11
-136.284296775861
 21
-298.3298053432701
 31
0.0
  0
LINE
  5
1DD
330
71
100
AcDbEntity
  8
1
  6
Continuous
 62
     2
100
AcDbLine
 10
-136.284296775861
 20
-303.3298053432702
 30
0.0
 11
-186.284296775861
 21
-303.3298053432702
 31
0.0
  0
LINE
  5
1DE
330
71
100
AcDbEntity
  8
1
  6
Continuous
 62
     2
100
AcDbLine
 10
-379.7842967758591
 20
-298.3298053432701
 30
0.0
 11
-379.7842967758591
 21
-303.3298053432702
 31
0.0
  0
LINE
  5
1DF
330
71
100
AcDbEntity
  8
1
  6
Continuous
 62
     2
100
AcDbLine
 10
-379.7842967758591
 20
-303.3298053432702
 30
0.0
 11
-336.284296775861
 21
-303.3298053432702
 31
0.0
  0
LINE
  5
1E0
330
71
100
AcDbEntity
  8
1
  6
Continuous
 62
     2
100
AcDbLine
 10
-379.7842967758591
 20
-298.3298053432701
 30
0.0
 11
-384.7842967758601
 21
-298.3298053432701
 31
0.0
  0
LINE
  5
1E1
330
71
100
AcDbEntity
  8
1
  6
Continuous
 62
     2
100
AcDbLine
 10
-384.7842967758601
 20
-298.3298053432701
 30
0.0
 11
-384.7842967758601
 21
-303.3298053432702
 31
0.0
  0
LINE
  5
1E2
330
71
100
AcDbEntity
  8
1
  6
Continuous
 62
     6
100
AcDbLine
 10
-92.784296775861
 20
-298.3298053432701
 30
0.0
 11
-92.7842967758597
 21
-289.8298053432701
 31
0.0
  0
LINE
  5
1E3
330
71
100
AcDbEntity
  8
1
  6
Continuous
 62
     6
100
AcDbLine
 10
-185.9291013026111
 20
-298.3298053432702
 30
0.0
 11
-136.284296775861
 21
-298.3298053432701
 31
0.0
  0
LINE
  5
1E4
330
71
100
AcDbEntity
  8
1
  6
Continuous
 62
     6
100
AcDbLine
 10
-338.5842967758612
 20
-298.3298053432702
 30
0.0
 11
-336.284296775861
 21
-298.3298053432701
 31
0.0
  0
LINE
  5
1E5
330
71
100
AcDbEntity
  8
1
  6
Continuous
 62
     6
100
AcDbLine
 10
-236.284296775861
 20
-298.3298053432701
 30
0.0
 11
-286.2842967758612
 21
-298.3298053432701
 31
0.0
  0
LINE
  5
1E6
330
71
100
AcDbEntity
  8
1
  6
Continuous
 62
     7
100
AcDbLine
 10
-222.329101302611
 20
-281.3298053432701
 30
0.0
 11
-222.329101302611
 21
-294.0798053432702
 31
0.0
  0
LINE
  5
1E7
330
71
100
AcDbEntity
  8
1
  6
Continuous
 62
     7
100
AcDbLine
 10
-185.9291013026111
 20
-281.3298053432701
 30
0.0
 11
-185.9291013026111
 21
-294.0798053432701
 31
0.0
  0
LINE
  5
1E8
330
71
100
AcDbEntity
  8
1
  6
Continuous
 62
     6
100
AcDbLine
 10
-338.5842967758612
 20
-298.3298053432702
 30
0.0
 11
-344.7842967758592
 21
-298.3298053432701
 31
0.0
  0
LINE
  5
1E9
330
71
100
AcDbEntity
  8
1
  6
Continuous
 62
     6
100
AcDbLine
 10
-185.9291013026111
 20
-298.3298053432702
 30
0.0
 11
-186.284296775861
 21
-298.3298053432701
 31
0.0
  0
LINE
  5
1EA
330
71
100
AcDbEntity
  8
1
  6
Continuous
 62
     6
100
AcDbLine
 10
-92.7842967758593
 20
-281.3298053432701
 30
0.0
 11
-92.7842967758597
 21
-289.8298053432701
 31
0.0
  0
LINE
  5
1EB
330
71
100
AcDbEntity
  8
1
  6
Continuous
 62
     6
100
AcDbLine
 10
-344.7842967758592
 20
-298.3298053432701
 30
0.0
 11
-379.7842967758591
 21
-298.3298053432701
 31
0.0
  0
LINE
  5
1EC
330
71
100
AcDbEntity
  8
1
  6
Continuous
 62
     2
100
AcDbLine
 10
-218.0924464160484
 20
-275.9548053432702
 30
0.0
 11
-213.0924464160484
 21
-274.7048053432702
 31
0.0
  0
LINE
  5
1ED
330
71
100
AcDbEntity
  8
1
  6
Continuous
 62
     2
100
AcDbLine
 10
-218.0924464160484
 20
-278.4548053432702
 30
0.0
 11
-218.0924464160484
 21
-275.9548053432702
 31
0.0
  0
LINE
  5
1EE
330
71
100
AcDbEntity
  8
1
  6
Continuous
 62
     2
100
AcDbLine
 10
-213.0924464160484
 20
-279.7048053432702
 30
0.0
 11
-218.0924464160484
 21
-278.4548053432702
 31
0.0
  0
LINE
  5
1EF
330
71
100
AcDbEntity
  8
1
  6
Continuous
 62
     2
100
AcDbLine
 10
-213.0924464160484
 20
-274.7048053432702
 30
0.0
 11
-213.0924464160484
 21
-279.7048053432702
 31
0.0
  0
LINE
  5
1F0
330
71
100
AcDbEntity
  8
1
  6
Continuous
 62
     7
100
AcDbLine
 10
-222.329101302611
 20
-294.0798053432702
 30
0.0
 11
-204.129101302611
 21
-294.0798053432701
 31
0.0
  0
LINE
  5
1F1
330
71
100
AcDbEntity
  8
1
  6
Continuous
 62
     7
100
AcDbLine
 10
-222.329101302611
 20
-294.0798053432702
 30
0.0
 11
-222.329101302611
 21
-298.3298053432702
 31
0.0
  0
LINE
  5
1F2
330
71
100
AcDbEntity
  8
1
  6
Continuous
 62
     7
100
AcDbLine
 10
-185.9291013026111
 20
-294.0798053432701
 30
0.0
 11
-185.9291013026111
 21
-298.3298053432702
 31
0.0
  0
LINE
  5
1F3
330
71
100
AcDbEntity
  8
1
  6
Continuous
 62
     7
100
AcDbLine
 10
-204.129101302611
 20
-294.0798053432701
 30
0.0
 11
-204.129101302611
 21
-298.3298053432701
 31
0.0
  0
LINE
  5
1F4
330
71
100
AcDbEntity
  8
1
  6
Continuous
 62
     6
100
AcDbLine
 10
-204.129101302611
 20
-298.3298053432701
 30
0.0
 11
-222.329101302611
 21
-298.3298053432702
 31
0.0
  0
LINE
  5
1F5
330
71
100
AcDbEntity
  8
1
  6
Continuous
 62
     7
100
AcDbLine
 10
-204.129101302611
 20
-294.0798053432701
 30
0.0
 11
-185.9291013026111
 21
-294.0798053432701
 31
0.0
  0
LINE
  5
1F6
330
71
100
AcDbEntity
  8
1
  6
Continuous
 62
     6
100
AcDbLine
 10
-222.329101302611
 20
-272.8298053432701
 30
0.0
 11
-92.7842967758593
 21
-272.8298053432701
 31
0.0
  0
ARC
  5
1F7
102
{ACAD_REACTORS
330
25F
330
260
102
}
330
71
100
AcDbEntity
  8
0
  6
Continuous
 62
     2
100
AcDbCircle
 10
-206.937453303651
 20
-289.5094005813485
 30
0.0
 40
0.7717997786797298
100
AcDbArc
 50
321.8795802028384
 51
38.12041979715163
  0
ARC
  5
1F8
102
{ACAD_REACTORS
330
25F
330
260
102
}
330
71
100
AcDbEntity
  8
0
  6
Continuous
 62
     2
100
AcDbCircle
 10
-206.7377132673046
 20
-289.6661317594685
 30
0.0
 40
0.5179085730137529
100
AcDbArc
 50
218.1204197971956
 51
321.8795802027985
  0
ARC
  5
1F9
102
{ACAD_REACTORS
330
25F
330
260
102
}
330
71
100
AcDbEntity
  8
0
  6
Continuous
 62
     2
100
AcDbCircle
 10
-206.5379732309585
 20
-289.5094005813485
 30
0.0
 40
0.7717997786794457
100
AcDbArc
 50
141.879580202838
 51
218.120419797172
  0
ARC
  5
1FA
102
{ACAD_REACTORS
330
25F
330
260
102
}
330
71
100
AcDbEntity
  8
0
  6
Continuous
 62
     2
100
AcDbCircle
 10
-206.7377132673046
 20
-289.352669403228
 30
0.0
 40
0.5179085730132998
100
AcDbArc
 50
38.12041979714704
 51
141.8795802028588
  0
ARC
  5
1FB
102
{ACAD_REACTORS
330
257
330
258
102
}
330
71
100
AcDbEntity
  8
0
  6
Continuous
 62
     2
100
AcDbCircle
 10
-209.7997274028685
 20
-290.9198669467567
 30
0.0
 40
2.227384008973517
100
AcDbArc
 50
58.06909105004049
 51
71.55192388186676
  0
ARC
  5
1FC
102
{ACAD_REACTORS
330
257
330
258
102
}
330
71
100
AcDbEntity
  8
0
  6
Continuous
 62
     2
100
AcDbCircle
 10
-209.5379997019097
 20
-289.3043291520095
 30
0.0
 40
0.511580060194863
100
AcDbArc
 50
113.3722778882033
 51
151.4785267423044
  0
ARC
  5
1FD
102
{ACAD_REACTORS
330
257
330
258
102
}
330
71
100
AcDbEntity
  8
0
  6
Continuous
 62
     2
100
AcDbCircle
 10
-209.1606424438294
 20
-289.5094005813485
 30
0.0
 40
0.9410597353332545
100
AcDbArc
 50
151.4785267422669
 51
208.5214732577088
  0
ARC
  5
1FE
102
{ACAD_REACTORS
330
257
330
258
102
}
330
71
100
AcDbEntity
  8
0
  6
Continuous
 62
     2
100
AcDbCircle
 10
-209.9576002779614
 20
-286.1967196360921
 30
0.0
 40
4.852596863498166
100
AcDbArc
 50
275.1581447696249
 51
285.9799912583529
  0
ARC
  5
1FF
102
{ACAD_REACTORS
330
257
330
258
102
}
330
71
100
AcDbEntity
  8
0
  6
Continuous
 62
     2
100
AcDbCircle
 10
-209.6687441832255
 20
-289.3966102193137
 30
0.0
 40
1.639695123939422
100
AcDbArc
 50
195.0618917770903
 51
275.1581447696395
  0
ARC
  5
200
102
{ACAD_REACTORS
330
257
330
258
102
}
330
71
100
AcDbEntity
  8
0
  6
Continuous
 62
     2
100
AcDbCircle
 10
-210.0878720266883
 20
-289.5094005813485
 30
0.0
 40
1.205656168390957
100
AcDbArc
 50
164.9381082228794
 51
195.0618917770971
  0
ARC
  5
201
102
{ACAD_REACTORS
330
257
330
258
102
}
330
71
100
AcDbEntity
  8
0
  6
Continuous
 62
     2
100
AcDbCircle
 10
-209.6687441832255
 20
-289.6221909433834
 30
0.0
 40
1.63969512394045
100
AcDbArc
 50
84.84185523036217
 51
164.9381082228886
  0
ARC
  5
202
102
{ACAD_REACTORS
330
25B
330
25C
102
}
330
71
100
AcDbEntity
  8
0
  6
Continuous
 62
     2
100
AcDbCircle
 10
-214.4987584373874
 20
-288.4755737869942
 30
0.0
 40
0.3157169230764815
100
AcDbArc
 50
115.3740086783563
 51
180.0
  0
ARC
  5
203
102
{ACAD_REACTORS
330
25B
330
25C
102
}
330
71
100
AcDbEntity
  8
0
  6
Continuous
 62
     2
100
AcDbCircle
 10
-214.4987584373874
 20
-286.257290587058
 30
0.0
 40
0.315716923076792
100
AcDbArc
 50
180.0
 51
244.6259913216482
  0
ARC
  5
204
102
{ACAD_REACTORS
330
25B
330
25C
102
}
330
71
100
AcDbEntity
  8
0
  6
Continuous
 62
     2
100
AcDbCircle
 10
-214.4931423020774
 20
-287.3545902461203
 30
0.0
 40
2.018561131933209
100
AcDbArc
 50
269.8110329575858
 51
90.18896704241416
  0
ARC
  5
205
102
{ACAD_REACTORS
330
25B
330
25C
102
}
330
71
100
AcDbEntity
  8
0
  6
Continuous
 62
     2
100
AcDbCircle
 10
-214.4987584373874
 20
-289.0574251936893
 30
0.0
 40
0.315716923076792
100
AcDbArc
 50
180.0
 51
269.8110329574541
  0
ARC
  5
206
102
{ACAD_REACTORS
330
259
330
25A
102
}
330
71
100
AcDbEntity
  8
0
  6
Continuous
 62
     2
100
AcDbCircle
 10
-193.4352982226568
 20
-289.3043291520095
 30
0.0
 40
0.5115800601944143
100
AcDbArc
 50
109.3371432194853
 51
151.4785267424253
  0
ARC
  5
207
102
{ACAD_REACTORS
330
259
330
25A
102
}
330
71
100
AcDbEntity
  8
0
  6
Continuous
 62
     2
100
AcDbCircle
 10
-193.4352982226568
 20
-289.714472010687
 30
0.0
 40
0.5115800601959944
100
AcDbArc
 50
208.521473257681
 51
246.6277221118449
  0
ARC
  5
208
102
{ACAD_REACTORS
330
259
330
25A
102
}
330
71
100
AcDbEntity
  8
0
  6
Continuous
 62
     2
100
AcDbCircle
 10
-193.9851705474342
 20
-289.5094005813485
 30
0.0
 40
1.205656168392988
100
AcDbArc
 50
164.9381082229054
 51
195.0618917770972
  0
ARC
  5
209
102
{ACAD_REACTORS
330
259
330
25A
102
}
330
71
100
AcDbEntity
  8
0
  6
Continuous
 62
     2
100
AcDbCircle
 10
-193.5660427039726
 20
-289.6221909433834
 30
0.0
 40
1.639695123940157
100
AcDbArc
 50
90.0
 51
164.9381082228966
  0
ARC
  5
20A
102
{ACAD_REACTORS
330
25D
330
25E
102
}
330
71
100
AcDbEntity
  8
0
  6
Continuous
 62
     2
100
AcDbCircle
 10
-202.9930377966763
 20
-286.1502101051742
 30
0.0
 40
1.526904761905882
100
AcDbArc
 50
90.0
 51
270.0
  0
ARC
  5
20B
102
{ACAD_REACTORS
330
261
330
262
102
}
330
71
100
AcDbEntity
  8
0
  6
Continuous
 62
     2
100
AcDbCircle
 10
-209.7357285419021
 20
-285.6392750133795
 30
0.0
 40
0.3528638246710898
100
AcDbArc
 50
270.0
 51
90.0
  0
ARC
  5
20C
102
{ACAD_REACTORS
330
25B
330
25C
102
}
330
71
100
AcDbEntity
  8
0
  6
Continuous
 62
     2
100
AcDbCircle
 10
-217.0743071239191
 20
-285.6515778219031
 30
0.0
 40
0.3157169230761951
100
AcDbArc
 50
90.0
 51
180.0
  0
ARC
  5
20D
102
{ACAD_REACTORS
330
25B
330
25C
102
}
330
71
100
AcDbEntity
  8
0
  6
Continuous
 62
     2
100
AcDbCircle
 10
-215.0758894153345
 20
-287.3664321870258
 30
0.0
 40
0.9118975235575889
100
AcDbArc
 50
115.194410648529
 51
244.8055893514878
  0
ARC
  5
20E
102
{ACAD_REACTORS
330
25B
330
25C
102
}
330
71
100
AcDbEntity
  8
0
  6
Continuous
 62
     2
100
AcDbCircle
 10
-215.5984738629095
 20
-288.4772619330886
 30
0.0
 40
0.315716923076593
100
AcDbArc
 50
0.0
 51
64.80558935146027
  0
ARC
  5
20F
102
{ACAD_REACTORS
330
25B
330
25C
102
}
330
71
100
AcDbEntity
  8
0
  6
Continuous
 62
     2
100
AcDbCircle
 10
-217.6682018006656
 20
-290.6120607278705
 30
0.0
 40
0.4242446153828041
100
AcDbArc
 50
180.0
 51
270.0
  0
ARC
  5
210
102
{ACAD_REACTORS
330
25D
330
25E
102
}
330
71
100
AcDbEntity
  8
0
  6
Continuous
 62
     2
100
AcDbCircle
 10
-202.7767657865111
 20
-285.9934789270537
 30
0.0
 40
0.5179085730135266
100
AcDbArc
 50
38.12041979714334
 51
141.8795802028489
  0
ARC
  5
211
102
{ACAD_REACTORS
330
25D
330
25E
102
}
330
71
100
AcDbEntity
  8
0
  6
Continuous
 62
     2
100
AcDbCircle
 10
-202.5770257501648
 20
-286.1502101051742
 30
0.0
 40
0.7717997786797075
100
AcDbArc
 50
141.8795802028371
 51
218.1204197971529
  0
ARC
  5
212
102
{ACAD_REACTORS
330
25F
330
260
102
}
330
71
100
AcDbEntity
  8
0
  6
Continuous
 62
     2
100
AcDbCircle
 10
-206.7377132673046
 20
-288.9708255710452
 30
0.0
 40
2.065479772208483
100
AcDbArc
 50
242.4518518243399
 51
297.5481481756875
  0
ARC
  5
213
102
{ACAD_REACTORS
330
25F
330
260
102
}
330
71
100
AcDbEntity
  8
0
  6
Continuous
 62
     2
100
AcDbCircle
 10
-206.7377132673046
 20
-290.0479755916513
 30
0.0
 40
2.065479772208593
100
AcDbArc
 50
62.45185182430674
 51
117.548148175666
  0
ARC
  5
214
102
{ACAD_REACTORS
330
25F
330
260
102
}
330
71
100
AcDbEntity
  8
0
  6
Continuous
 62
     2
100
AcDbCircle
 10
-207.0186531591379
 20
-289.5094005813485
 30
0.0
 40
1.458034083651465
100
AcDbArc
 50
117.548148175663
 51
242.451851824338
  0
ARC
  5
215
102
{ACAD_REACTORS
330
25F
330
260
102
}
330
71
100
AcDbEntity
  8
0
  6
Continuous
 62
     2
100
AcDbCircle
 10
-206.4567733754713
 20
-289.5094005813485
 30
0.0
 40
1.458034083652028
100
AcDbArc
 50
297.5481481757005
 51
62.45185182429842
  0
ARC
  5
216
102
{ACAD_REACTORS
330
25D
330
25E
102
}
330
71
100
AcDbEntity
  8
0
  6
Continuous
 62
     2
100
AcDbCircle
 10
-202.7767657865111
 20
-286.3069412832946
 30
0.0
 40
0.5179085730134372
100
AcDbArc
 50
218.1204197971511
 51
321.8795802028566
  0
ARC
  5
217
102
{ACAD_REACTORS
330
25D
330
25E
102
}
330
71
100
AcDbEntity
  8
0
  6
Continuous
 62
     2
100
AcDbCircle
 10
-202.9765058228573
 20
-286.1502101051742
 30
0.0
 40
0.7717997786796023
100
AcDbArc
 50
321.8795802028471
 51
38.12041979716289
  0
ARC
  5
218
102
{ACAD_REACTORS
330
25B
330
25C
102
}
330
71
100
AcDbEntity
  8
0
  6
Continuous
 62
     2
100
AcDbCircle
 10
-212.1948897099488
 20
-290.6120607278705
 30
0.0
 40
0.4242446153832589
100
AcDbArc
 50
270.0
 51
0.0
  0
ARC
  5
219
102
{ACAD_REACTORS
330
25B
330
25C
102
}
330
71
100
AcDbEntity
  8
0
  6
Continuous
 62
     2
100
AcDbCircle
 10
-212.1948897099488
 20
-285.0475499586703
 30
0.0
 40
0.4242446153838841
100
AcDbArc
 50
0.0
 51
90.0
  0
ARC
  5
21A
102
{ACAD_REACTORS
330
25B
330
25C
102
}
330
71
100
AcDbEntity
  8
0
  6
Continuous
 62
     2
100
AcDbCircle
 10
-217.6682018006656
 20
-285.0475499586703
 30
0.0
 40
0.4242446153837705
100
AcDbArc
 50
90.0
 51
180.0
  0
ARC
  5
21B
102
{ACAD_REACTORS
330
25B
330
25C
102
}
330
71
100
AcDbEntity
  8
0
  6
Continuous
 62
     2
100
AcDbCircle
 10
-215.5984738629095
 20
-290.0080328646202
 30
0.0
 40
0.3157169230767067
100
AcDbArc
 50
270.0
 51
0.0
  0
ARC
  5
21C
102
{ACAD_REACTORS
330
25B
330
25C
102
}
330
71
100
AcDbEntity
  8
0
  6
Continuous
 62
     2
100
AcDbCircle
 10
-215.5984738629095
 20
-286.2556024409636
 30
0.0
 40
0.3157169230761203
100
AcDbArc
 50
295.1944106485397
 51
0.0
  0
ARC
  5
21D
102
{ACAD_REACTORS
330
25B
330
25C
102
}
330
71
100
AcDbEntity
  8
0
  6
Continuous
 62
     2
100
AcDbCircle
 10
-215.5984738629095
 20
-285.6515778219031
 30
0.0
 40
0.315716923076593
100
AcDbArc
 50
0.0
 51
90.0
  0
ARC
  5
21E
102
{ACAD_REACTORS
330
25B
330
25C
102
}
330
71
100
AcDbEntity
  8
0
  6
Continuous
 62
     2
100
AcDbCircle
 10
-217.0743071239191
 20
-290.0080328646202
 30
0.0
 40
0.3157169230756836
100
AcDbArc
 50
180.0
 51
270.0
  0
ARC
  5
21F
102
{ACAD_REACTORS
330
261
330
262
102
}
330
71
100
AcDbEntity
  8
0
  6
Continuous
 62
     2
100
AcDbCircle
 10
-209.2942560156637
 20
-285.678670984602
 30
0.0
 40
1.055365641333708
100
AcDbArc
 50
270.0
 51
90.0
  0
ARC
  5
220
102
{ACAD_REACTORS
330
259
330
25A
102
}
330
71
100
AcDbEntity
  8
0
  6
Continuous
 62
     2
100
AcDbCircle
 10
-193.5660427039726
 20
-289.3966102193137
 30
0.0
 40
1.639695123940421
100
AcDbArc
 50
195.0618917771015
 51
275.1581447696772
  0
ARC
  5
221
102
{ACAD_REACTORS
330
259
330
25A
102
}
330
71
100
AcDbEntity
  8
0
  6
Continuous
 62
     2
100
AcDbCircle
 10
-193.8548987987084
 20
-286.1967196360921
 30
0.0
 40
4.852596863498825
100
AcDbArc
 50
275.1581447696364
 51
285.9799912583384
  0
ARC
  5
222
102
{ACAD_REACTORS
330
259
330
25A
102
}
330
71
100
AcDbEntity
  8
0
  6
Continuous
 62
     2
100
AcDbCircle
 10
-193.6970259236156
 20
-288.0989342159404
 30
0.0
 40
2.227384008972773
100
AcDbArc
 50
288.4480761181333
 51
301.9309089499387
  0
ARC
  5
223
102
{ACAD_REACTORS
330
259
330
25A
102
}
330
71
100
AcDbEntity
  8
0
  6
Continuous
 62
     2
100
AcDbCircle
 10
-193.2788581899537
 20
-289.352479991977
 30
0.0
 40
0.9059297849852801
100
AcDbArc
 50
246.6277221118183
 51
288.4480761180817
  0
ARC
  5
224
102
{ACAD_REACTORS
330
259
330
25A
102
}
330
71
100
AcDbEntity
  8
0
  6
Continuous
 62
     2
100
AcDbCircle
 10
-193.0579409645754
 20
-289.5094005813485
 30
0.0
 40
0.9410597353348789
100
AcDbArc
 50
151.478526742364
 51
208.5214732576695
  0
ARC
  5
225
102
{ACAD_REACTORS
330
259
330
25A
102
}
330
71
100
AcDbEntity
  8
0
  6
Continuous
 62
     2
100
AcDbCircle
 10
-193.2886282245531
 20
-289.7222841323924
 30
0.0
 40
0.9545230068260935
100
AcDbArc
 50
90.0
 51
109.3371432194309
  0
ARC
  5
226
102
{ACAD_REACTORS
330
25B
330
25C
102
}
330
71
100
AcDbEntity
  8
0
  6
Continuous
 62
     2
100
AcDbCircle
 10
-214.4987584373874
 20
-285.6517552985512
 30
0.0
 40
0.3157169230760711
100
AcDbArc
 50
90.18896704254594
 51
180.0
  0
ARC
  5
227
102
{ACAD_REACTORS
330
25B
330
25C
102
}
330
71
100
AcDbEntity
  8
0
  6
Continuous
 62
     2
100
AcDbCircle
 10
-215.0248011354753
 20
-287.3664321870258
 30
0.0
 40
0.9118481501444847
100
AcDbArc
 50
295.3740086781757
 51
64.62599132180748
  0
ARC
  5
228
102
{ACAD_REACTORS
330
257
330
258
102
}
330
71
100
AcDbEntity
  8
0
  6
Continuous
 62
     2
100
AcDbCircle
 10
-209.7997274028685
 20
-288.0989342159398
 30
0.0
 40
2.227384008972773
100
AcDbArc
 50
288.4480761181333
 51
301.9309089499595
  0
ARC
  5
229
102
{ACAD_REACTORS
330
257
330
258
102
}
330
71
100
AcDbEntity
  8
0
  6
Continuous
 62
     2
100
AcDbCircle
 10
-209.3815596692077
 20
-289.352479991977
 30
0.0
 40
0.9059297849849305
100
AcDbArc
 50
246.6277221118694
 51
288.448076118159
  0
ARC
  5
22A
102
{ACAD_REACTORS
330
257
330
258
102
}
330
71
100
AcDbEntity
  8
0
  6
Continuous
 62
     2
100
AcDbCircle
 10
-209.5379997019097
 20
-289.714472010687
 30
0.0
 40
0.5115800601948034
100
AcDbArc
 50
208.5214732576956
 51
246.6277221118245
  0
ARC
  5
22B
102
{ACAD_REACTORS
330
257
330
258
102
}
330
71
100
AcDbEntity
  8
0
  6
Continuous
 62
     2
100
AcDbCircle
 10
-209.3815596692077
 20
-289.6663211707201
 30
0.0
 40
0.9059297849853228
100
AcDbArc
 50
71.55192388185348
 51
113.3722778881306
  0
ARC
  5
22C
102
{ACAD_REACTORS
330
257
330
258
102
}
330
71
100
AcDbEntity
  8
0
  6
Continuous
 62
     2
100
AcDbCircle
 10
-209.9576002779614
 20
-292.8220815266044
 30
0.0
 40
4.85259686349804
100
AcDbArc
 50
74.02000874164729
 51
84.84185523037502
  0
CIRCLE
  5
22D
102
{ACAD_REACTORS
330
25B
330
25C
102
}
330
71
100
AcDbEntity
  8
0
  6
Continuous
 62
     2
100
AcDbCircle
 10
-215.0486161501481
 20
-287.3664321870258
 30
0.0
 40
0.470978932778479
  0
CIRCLE
  5
22E
330
71
100
AcDbEntity
  8
1
  6
Continuous
 62
     2
100
AcDbCircle
 10
-209.5924464160484
 20
-277.2048053432702
 30
0.0
 40
1.249999999999915
  0
CIRCLE
  5
22F
330
71
100
AcDbEntity
  8
1
  6
Continuous
 62
     2
100
AcDbCircle
 10
-209.5924464160484
 20
-277.2048053432702
 30
0.0
 40
2.5
  0
TEXT
  5
230
330
71
100
AcDbEntity
  8
1
 62
     7
100
AcDbText
 10
-166.9555535805972
 20
-280.0298053432702
 30
0.0
 40
2.5
  1
/
 41
0.9
  7
CONVERTER_11
100
AcDbText
  0
TEXT
  5
232
330
71
100
AcDbEntity
  8
1
 62
     7
100
AcDbText
 10
-164.7991890835552
 20
-280.0298053432702
 30
0.0
 40
2.5
  1
01
 41
0.81
  7
CONVERTER_12
100
AcDbText
  0
TEXT
  5
233
330
71
100
AcDbEntity
  8
1
 62
     3
100
AcDbText
 10
-127.2027050575381
 20
-280.0298053432702
 30
0.0
 40
2.5
  1
26.03.2018
 41
0.81
  7
CONVERTER_12
100
AcDbText
  0
MTEXT
  5
234
330
71
100
AcDbEntity
  8
1
 62
     2
100
AcDbMText
 10
-127.2027050575381
 20
-273.8298053432702
 30
0.0
 40
1.8
 41
0.0
 71
     1
 72
     1
  1
date
  7
CONVERTER_11
 73
     1
 44
1.32052821128451
  0
MTEXT
  5
235
330
71
100
AcDbEntity
  8
1
 62
     2
100
AcDbMText
 10
-157.029101302611
 20
-282.3298053432702
 30
0.0
 40
1.8
 41
0.0
 71
     1
 72
     1
  1
document-type
  7
CONVERTER_11
 73
     1
 44
1.20048019207683
  0
TEXT
  5
236
330
71
100
AcDbEntity
  8
1
 62
     3
100
AcDbText
 10
-157.029101302611
 20
-288.5298053432702
 30
0.0
 40
2.5
  1
TECDOC 2D_Productdrawing
 41
0.81
  7
CONVERTER_12
100
AcDbText
  0
MTEXT
  5
238
330
71
100
AcDbEntity
  8
1
 62
     2
100
AcDbMText
 10
-184.829101302611
 20
-273.8298053432701
 30
0.0
 40
1.8
 41
0.0
 71
     1
 72
     1
  1
document-No. / RI
  7
CONVERTER_13
 73
     1
 44
1.32052821128451
  0
TEXT
  5
239
330
71
100
AcDbEntity
  8
1
 62
     7
100
AcDbText
 10
-184.829101302611
 20
-280.0298053432702
 30
0.0
 40
2.5
  1
00475945
 41
0.81
  7
CONVERTER_12
100
AcDbText
  0
MTEXT
  5
23B
330
71
100
AcDbEntity
  8
1
 62
     3
100
AcDbMText
 10
-97.2435009166987
 20
-280.02980534327
 30
0.0
 40
2.5
 41
0.0
 71
     8
 72
     1
  1
1:1
  7
CONVERTER_14
 73
     1
 44
1.32052821128451
  0
MTEXT
  5
23C
330
71
100
AcDbEntity
  8
1
 62
     2
100
AcDbMText
 10
-100.6027050575383
 20
-273.8298053432701
 30
0.0
 40
1.8
 41
0.0
 71
     1
 72
     1
  1
scale
  7
CONVERTER_11
 73
     1
 44
1.20048019207683
  0
MTEXT
  5
23D
330
71
100
AcDbEntity
  8
1
 62
     2
100
AcDbMText
 10
-184.829101302611
 20
-282.3298053432701
 30
0.0
 40
1.8
 41
0.0
 71
     1
 72
     1
  1
ident.-No.
  7
CONVERTER_11
 73
     1
 44
1.20048019207683
  0
TEXT
  5
23E
330
71
100
AcDbEntity
  8
1
 62
     7
100
AcDbText
 10
-184.4291013026113
 20
-288.5298053432702
 30
0.0
 40
2.5
  1
3024180
 41
0.81
  7
CONVERTER_12
100
AcDbText
  0
MTEXT
  5
23F
330
71
100
AcDbEntity
  8
1
 62
     2
100
AcDbMText
 10
-256.7671160276585
 20
-285.5798053432702
 30
0.0
 40
2.0
 41
0.0
 71
     5
 72
     1
  1
General Information\P- Simplified representation\P- Document excluded from change process\P- Linear dimensions [mm]
  7
CONVERTER_11
 73
     1
 44
1.20048019207683
  0
MTEXT
  5
240
330
71
100
AcDbEntity
  8
1
 62
     7
100
AcDbMText
 10
-90.284296775862
 20
-223.3298053432682
 30
0.0
 40
3.5
 41
0.0
 71
     5
 72
     1
  1
C
  7
CONVERTER_11
 73
     1
 44
1.20048019207683
  0
MTEXT
  5
241
330
71
100
AcDbEntity
  8
1
 62
     7
100
AcDbMText
 10
-90.284296775862
 20
-120.8298053432701
 30
0.0
 40
3.5
 41
0.0
 71
     5
 72
     1
  1
A
  7
CONVERTER_11
 73
     1
 44
1.20048019207683
  0
MTEXT
  5
242
330
71
100
AcDbEntity
  8
1
 62
     7
100
AcDbMText
 10
-90.284296775862
 20
-173.3298053432682
 30
0.0
 40
3.5
 41
0.0
 71
     5
 72
     1
  1
B
  7
CONVERTER_11
 73
     1
 44
1.20048019207683
  0
MTEXT
  5
243
330
71
100
AcDbEntity
  8
1
 62
     7
100
AcDbMText
 10
-90.284296775862
 20
-275.8298053432701
 30
0.0
 40
3.5
 41
0.0
 71
     5
 72
     1
  1
D
  7
CONVERTER_11
 73
     1
 44
1.20048019207683
  0
MTEXT
  5
244
330
71
100
AcDbEntity
  8
1
 62
     7
100
AcDbMText
 10
-360.5342967758606
 20
-300.8298053432702
 30
0.0
 40
3.5
 41
0.0
 71
     5
 72
     1
  1
1
  7
CONVERTER_11
 73
     1
 44
1.20048019207683
  0
MTEXT
  5
245
330
71
100
AcDbEntity
  8
1
 62
     7
100
AcDbMText
 10
-311.284296775861
 20
-300.8298053432702
 30
0.0
 40
3.5
 41
0.0
 71
     5
 72
     1
  1
2
  7
CONVERTER_11
 73
     1
 44
1.20048019207683
  0
MTEXT
  5
246
330
71
100
AcDbEntity
  8
1
 62
     7
100
AcDbMText
 10
-261.284296775861
 20
-300.8298053432702
 30
0.0
 40
3.5
 41
0.0
 71
     5
 72
     1
  1
3
  7
CONVERTER_11
 73
     1
 44
1.20048019207683
  0
MTEXT
  5
247
330
71
100
AcDbEntity
  8
1
 62
     7
100
AcDbMText
 10
-211.2842967758611
 20
-300.8298053432702
 30
0.0
 40
3.5
 41
0.0
 71
     5
 72
     1
  1
4
  7
CONVERTER_11
 73
     1
 44
1.20048019207683
  0
MTEXT
  5
248
330
71
100
AcDbEntity
  8
1
 62
     7
100
AcDbMText
 10
-161.284296775861
 20
-300.8298053432702
 30
0.0
 40
3.5
 41
0.0
 71
     5
 72
     1
  1
5
  7
CONVERTER_11
 73
     1
 44
1.20048019207683
  0
MTEXT
  5
249
330
71
100
AcDbEntity
  8
1
 62
     7
100
AcDbMText
 10
-112.0342967758618
 20
-300.8298053432702
 30
0.0
 40
3.5
 41
0.0
 71
     5
 72
     1
  1
6
  7
CONVERTER_11
 73
     1
 44
1.20048019207683
  0
MTEXT
  5
24A
330
71
100
AcDbEntity
  8
1
 62
     7
100
AcDbMText
 10
-382.2842967758601
 20
-120.8298053432701
 30
0.0
 40
3.5
 41
0.0
 71
     5
 72
     1
  1
A
  7
CONVERTER_11
 73
     1
 44
1.20048019207683
  0
MTEXT
  5
24B
330
71
100
AcDbEntity
  8
1
 62
     7
100
AcDbMText
 10
-382.2842967758601
 20
-173.3298053432701
 30
0.0
 40
3.5
 41
0.0
 71
     5
 72
     1
  1
B
  7
CONVERTER_11
 73
     1
 44
1.20048019207683
  0
MTEXT
  5
24C
330
71
100
AcDbEntity
  8
1
 62
     7
100
AcDbMText
 10
-382.2842967758601
 20
-223.3298053432701
 30
0.0
 40
3.5
 41
0.0
 71
     5
 72
     1
  1
C
  7
CONVERTER_11
 73
     1
 44
1.20048019207683
  0
MTEXT
  5
24D
330
71
100
AcDbEntity
  8
1
 62
     7
100
AcDbMText
 10
-382.2842967758601
 20
-275.8298053432701
 30
0.0
 40
3.5
 41
0.0
 71
     5
 72
     1
  1
D
  7
CONVERTER_11
 73
     1
 44
1.20048019207683
  0
MTEXT
  5
24E
330
71
100
AcDbEntity
  8
1
 62
     3
100
AcDbMText
 10
-196.1291013026111
 20
-277.2048053432701
 30
0.0
 40
2.5
 41
0.0
 71
     5
 72
     1
  1
DIN A4
  7
CONVERTER_11
 73
     1
 44
1.20048019207683
  0
MTEXT
  5
24F
330
71
100
AcDbEntity
  8
1
 62
     2
100
AcDbMText
 10
-184.9291013026111
 20
-290.8298053432701
 30
0.0
 40
1.8
 41
0.0
 71
     1
 72
     1
  1
description
  7
CONVERTER_11
 73
     1
 44
1.20048019207683
  0
MTEXT
  5
250
330
71
100
AcDbEntity
  8
1
 62
     7
100
AcDbMText
 10
-139.3566990392355
 20
-295.0798053432699
 30
0.0
 40
3.0
 41
0.0
 71
     5
 72
     1
  1
D-MSB 1,5-F
  7
CONVERTER_12
 73
     1
 44
1.20048019207683
  0
TEXT
  5
251
330
71
100
AcDbEntity
  8
1
 62
     2
100
AcDbText
 10
-197.8937924927975
 20
-297.0798053432702
 30
0.0
 40
1.8
  1
1
 41
0.9
  7
CONVERTER_11
100
AcDbText
  0
TEXT
  5
252
330
71
100
AcDbEntity
  8
1
 62
     2
100
AcDbText
 10
-212.682836332269
 20
-297.1290539970721
 30
0.0
 40
1.8
  1
1
 41
0.9
  7
CONVERTER_11
100
AcDbText
  0
TEXT
  5
253
330
71
100
AcDbEntity
  8
1
 62
     2
100
AcDbText
 10
-221.329101302611
 20
-297.0888225582618
 30
0.0
 40
1.8
  1
page
 41
0.9
  7
CONVERTER_11
100
AcDbText
  0
TEXT
  5
254
330
71
100
AcDbEntity
  8
1
 62
     2
100
AcDbText
 10
-203.1291013026112
 20
-297.0888225582617
 30
0.0
 40
1.8
  1
of
 41
0.9
  7
CONVERTER_11
100
AcDbText
  0
MTEXT
  5
255
330
71
100
AcDbEntity
  8
1
 62
     3
100
AcDbMText
 10
-196.9261191510011
 20
-111.5384971879713
 30
0.0
 40
1.8
 41
0.0
 71
     7
 72
     1
  3
Transfer or duplication of this document as well as the utilisation or\Pcommunication of its content are not permitted unless express consent\Pis granted. Violations give rise to claims for damages. All rights reserved\Pin case of patent, utility mo
  1
del or design patent registrations.
  7
CONVERTER_11
 73
     1
 44
0.99639855942377
  0
MTEXT
  5
256
330
71
100
AcDbEntity
  8
1
 62
     3
100
AcDbMText
 10
-379.7792289897892
 20
-111.5384971879713
 30
0.0
 40
1.8
 41
0.0
 71
     7
 72
     1
  3
Weitergabe sowie Vervielf\U+00e4ltigung dieses Dokuments, Verwertung und \PMitteilung seines Inhalts sind verboten, soweit nicht ausdr\U+00fccklich gestattet. \PZuwiderhandlungen verpflichten zu Schadenersatz. Alle Rechte f\U+00fcr den Fall\Pder Pat
  1
ent-, Gebrauchsmuster- oder Designeintragung vorbehalten.
  7
CONVERTER_11
 73
     1
 44
0.99639855942377
  0
HATCH
  5
257
330
71
100
AcDbEntity
  8
1
  6
Continuous
 62
     2
100
AcDbHatch
 10
0.0
 20
0.0
 30
0.0
210
0.0
220
0.0
230
1.0
  2
_USER
 70
     0
 71
     1
 91
        1
 92
        1
 93
       14
 72
     2
 10
-210.0878720266883
 20
-289.5094005813485
 40
1.205656168390957
 50
164.9381082228794
 51
195.0618917770971
 73
     1
 72
     2
 10
-209.6687441832255
 20
-289.3966102193137
 40
1.639695123939422
 50
195.0618917770903
 51
275.1581447696395
 73
     1
 72
     2
 10
-209.9576002779614
 20
-286.1967196360921
 40
4.852596863498166
 50
275.1581447696249
 51
285.9799912583529
 73
     1
 72
     1
 10
-208.6216723608436
 20
-290.8618019418929
 11
-208.6216723608436
 21
-289.9892849350897
 72
     2
 10
-209.7997274028685
 20
-288.0989342159398
 40
2.227384008972773
 50
58.06909105004051
 51
71.55192388186677
 73
     0
 72
     2
 10
-209.3815596692077
 20
-289.352479991977
 40
0.9059297849849305
 50
71.55192388184098
 51
113.3722778881306
 73
     0
 72
     2
 10
-209.5379997019097
 20
-289.714472010687
 40
0.5115800601948034
 50
113.3722778881755
 51
151.4785267423044
 73
     0
 72
     2
 10
-209.1606424438294
 20
-289.5094005813485
 40
0.9410597353332545
 50
151.4785267422912
 51
208.5214732577331
 73
     0
 72
     2
 10
-209.5379997019097
 20
-289.3043291520095
 40
0.511580060194863
 50
208.5214732576956
 51
246.6277221117967
 73
     0
 72
     2
 10
-209.3815596692077
 20
-289.6663211707201
 40
0.9059297849853228
 50
246.6277221118694
 51
288.4480761181465
 73
     0
 72
     2
 10
-209.7997274028685
 20
-290.9198669467567
 40
2.227384008973517
 50
288.4480761181333
 51
301.9309089499595
 73
     0
 72
     1
 10
-208.6216723608436
 20
-289.0295162276068
 11
-208.6216723608436
 21
-288.1569992208035
 72
     2
 10
-209.9576002779614
 20
-292.8220815266044
 40
4.85259686349804
 50
74.02000874164729
 51
84.84185523037502
 73
     1
 72
     2
 10
-209.6687441832255
 20
-289.6221909433834
 40
1.63969512394045
 50
84.84185523036217
 51
164.9381082228886
 73
     1
 97
       14
330
22C
330
145
330
1FB
330
22B
330
1FC
330
1FD
330
22A
330
229
330
228
330
146
330
1FE
330
1FF
330
200
330
201
 75
     1
 76
     0
 52
45.0
 41
0.1
 77
     0
 78
     1
 53
45.0
 43
0.0
 44
0.0
 45
-0.0707106781186548
 46
0.0707106781186548
 79
     0
 98
        1
 10
0.0
 20
0.0
  0
HATCH
  5
258
330
71
100
AcDbEntity
  8
1
  6
Continuous
 62
     2
100
AcDbHatch
 10
0.0
 20
0.0
 30
0.0
210
0.0
220
0.0
230
1.0
  2
_USER
 70
     0
 71
     1
 91
        1
 92
        1
 93
       14
 72
     2
 10
-210.0878720266883
 20
-289.5094005813485
 40
1.205656168390957
 50
164.9381082228794
 51
195.0618917770971
 73
     1
 72
     2
 10
-209.6687441832255
 20
-289.3966102193137
 40
1.639695123939422
 50
195.0618917770903
 51
275.1581447696395
 73
     1
 72
     2
 10
-209.9576002779614
 20
-286.1967196360921
 40
4.852596863498166
 50
275.1581447696249
 51
285.9799912583529
 73
     1
 72
     1
 10
-208.6216723608436
 20
-290.8618019418929
 11
-208.6216723608436
 21
-289.9892849350897
 72
     2
 10
-209.7997274028685
 20
-288.0989342159398
 40
2.227384008972773
 50
58.06909105004051
 51
71.55192388186677
 73
     0
 72
     2
 10
-209.3815596692077
 20
-289.352479991977
 40
0.9059297849849305
 50
71.55192388184098
 51
113.3722778881306
 73
     0
 72
     2
 10
-209.5379997019097
 20
-289.714472010687
 40
0.5115800601948034
 50
113.3722778881755
 51
151.4785267423044
 73
     0
 72
     2
 10
-209.1606424438294
 20
-289.5094005813485
 40
0.9410597353332545
 50
151.4785267422912
 51
208.5214732577331
 73
     0
 72
     2
 10
-209.5379997019097
 20
-289.3043291520095
 40
0.511580060194863
 50
208.5214732576956
 51
246.6277221117967
 73
     0
 72
     2
 10
-209.3815596692077
 20
-289.6663211707201
 40
0.9059297849853228
 50
246.6277221118694
 51
288.4480761181465
 73
     0
 72
     2
 10
-209.7997274028685
 20
-290.9198669467567
 40
2.227384008973517
 50
288.4480761181333
 51
301.9309089499595
 73
     0
 72
     1
 10
-208.6216723608436
 20
-289.0295162276068
 11
-208.6216723608436
 21
-288.1569992208035
 72
     2
 10
-209.9576002779614
 20
-292.8220815266044
 40
4.85259686349804
 50
74.02000874164729
 51
84.84185523037502
 73
     1
 72
     2
 10
-209.6687441832255
 20
-289.6221909433834
 40
1.63969512394045
 50
84.84185523036217
 51
164.9381082228886
 73
     1
 97
       14
330
22C
330
145
330
1FB
330
22B
330
1FC
330
1FD
330
22A
330
229
330
228
330
146
330
1FE
330
1FF
330
200
330
201
 75
     1
 76
     0
 52
45.0
 41
0.1
 77
     0
 78
     1
 53
45.0
 43
0.0
 44
0.0
 45
-0.0707106781186548
 46
0.0707106781186548
 79
     0
 98
        1
 10
0.0
 20
0.0
  0
HATCH
  5
259
330
71
100
AcDbEntity
  8
1
  6
Continuous
 62
     2
100
AcDbHatch
 10
0.0
 20
0.0
 30
0.0
210
0.0
220
0.0
230
1.0
  2
_USER
 70
     0
 71
     1
 91
        1
 92
        1
 93
       18
 72
     2
 10
-193.5660427039726
 20
-289.6221909433834
 40
1.639695123940157
 50
90.0
 51
164.9381082228966
 73
     1
 72
     2
 10
-193.9851705474342
 20
-289.5094005813485
 40
1.205656168392988
 50
164.9381082229054
 51
195.0618917770972
 73
     1
 72
     2
 10
-193.5660427039726
 20
-289.3966102193137
 40
1.639695123940421
 50
195.0618917771015
 51
275.1581447696772
 73
     1
 72
     2
 10
-193.8548987987084
 20
-286.1967196360921
 40
4.852596863498825
 50
275.1581447696364
 51
285.9799912583384
 73
     1
 72
     1
 10
-192.5189708815917
 20
-290.8618019418935
 11
-192.5189708815917
 21
-289.9892849350902
 72
     2
 10
-193.6970259236156
 20
-288.0989342159404
 40
2.227384008972773
 50
58.06909105006127
 51
71.55192388186677
 73
     0
 72
     2
 10
-193.2788581899537
 20
-289.352479991977
 40
0.9059297849852801
 50
71.55192388191827
 51
113.3722778881817
 73
     0
 72
     2
 10
-193.4352982226568
 20
-289.714472010687
 40
0.5115800601959944
 50
113.3722778881551
 51
151.478526742319
 73
     0
 72
     2
 10
-193.0579409645754
 20
-289.5094005813485
 40
0.9410597353348789
 50
151.4785267423305
 51
208.521473257636
 73
     0
 72
     2
 10
-193.4352982226568
 20
-289.3043291520095
 40
0.5115800601944143
 50
208.5214732575747
 51
250.6628567805147
 73
     0
 72
     2
 10
-193.2886282245531
 20
-289.7222841323924
 40
0.9545230068260935
 50
250.6628567805691
 51
270.0
 73
     0
 72
     1
 10
-193.2886282245531
 20
-288.7677611255663
 11
-192.184988924985
 21
-288.7677611255663
 72
     1
 10
-192.184988924985
 20
-288.7677611255663
 11
-192.184988924985
 21
-291.0363053432538
 72
     1
 10
-192.184988924985
 20
-291.0363053432538
 11
-190.9921962228173
 21
-291.0363053432538
 72
     1
 10
-190.9921962228173
 20
-291.0363053432538
 11
-190.9921962228173
 21
-288.7677611255663
 72
     1
 10
-190.9921962228173
 20
-288.7677611255663
 11
-190.1810971853439
 21
-288.7677611255663
 72
     1
 10
-190.1810971853439
 20
-288.7677611255663
 11
-190.1810971853439
 21
-287.9824958194427
 72
     1
 10
-190.1810971853439
 20
-287.9824958194427
 11
-193.5660427039726
 21
-287.9824958194432
 97
       18
330
1AB
330
1AA
330
1A9
330
1A8
330
1AD
330
147
330
225
330
206
330
224
330
207
330
223
330
222
330
148
330
221
330
220
330
208
330
209
330
1AC
 75
     1
 76
     0
 52
45.0
 41
0.1
 77
     0
 78
     1
 53
45.0
 43
0.0
 44
0.0
 45
-0.0707106781186548
 46
0.0707106781186548
 79
     0
 98
        1
 10
0.0
 20
0.0
  0
HATCH
  5
25A
330
71
100
AcDbEntity
  8
1
  6
Continuous
 62
     2
100
AcDbHatch
 10
0.0
 20
0.0
 30
0.0
210
0.0
220
0.0
230
1.0
  2
_USER
 70
     0
 71
     1
 91
        1
 92
        1
 93
       18
 72
     2
 10
-193.5660427039726
 20
-289.6221909433834
 40
1.639695123940157
 50
90.0
 51
164.9381082228966
 73
     1
 72
     2
 10
-193.9851705474342
 20
-289.5094005813485
 40
1.205656168392988
 50
164.9381082229054
 51
195.0618917770972
 73
     1
 72
     2
 10
-193.5660427039726
 20
-289.3966102193137
 40
1.639695123940421
 50
195.0618917771015
 51
275.1581447696772
 73
     1
 72
     2
 10
-193.8548987987084
 20
-286.1967196360921
 40
4.852596863498825
 50
275.1581447696364
 51
285.9799912583384
 73
     1
 72
     1
 10
-192.5189708815917
 20
-290.8618019418935
 11
-192.5189708815917
 21
-289.9892849350902
 72
     2
 10
-193.6970259236156
 20
-288.0989342159404
 40
2.227384008972773
 50
58.06909105006127
 51
71.55192388186677
 73
     0
 72
     2
 10
-193.2788581899537
 20
-289.352479991977
 40
0.9059297849852801
 50
71.55192388191827
 51
113.3722778881817
 73
     0
 72
     2
 10
-193.4352982226568
 20
-289.714472010687
 40
0.5115800601959944
 50
113.3722778881551
 51
151.478526742319
 73
     0
 72
     2
 10
-193.0579409645754
 20
-289.5094005813485
 40
0.9410597353348789
 50
151.4785267423305
 51
208.521473257636
 73
     0
 72
     2
 10
-193.4352982226568
 20
-289.3043291520095
 40
0.5115800601944143
 50
208.5214732575747
 51
250.6628567805147
 73
     0
 72
     2
 10
-193.2886282245531
 20
-289.7222841323924
 40
0.9545230068260935
 50
250.6628567805691
 51
270.0
 73
     0
 72
     1
 10
-193.2886282245531
 20
-288.7677611255663
 11
-192.184988924985
 21
-288.7677611255663
 72
     1
 10
-192.184988924985
 20
-288.7677611255663
 11
-192.184988924985
 21
-291.0363053432538
 72
     1
 10
-192.184988924985
 20
-291.0363053432538
 11
-190.9921962228173
 21
-291.0363053432538
 72
     1
 10
-190.9921962228173
 20
-291.0363053432538
 11
-190.9921962228173
 21
-288.7677611255663
 72
     1
 10
-190.9921962228173
 20
-288.7677611255663
 11
-190.1810971853439
 21
-288.7677611255663
 72
     1
 10
-190.1810971853439
 20
-288.7677611255663
 11
-190.1810971853439
 21
-287.9824958194427
 72
     1
 10
-190.1810971853439
 20
-287.9824958194427
 11
-193.5660427039726
 21
-287.9824958194432
 97
       18
330
1AB
330
1AA
330
1A9
330
1A8
330
1AD
330
147
330
225
330
206
330
224
330
207
330
223
330
222
330
148
330
221
330
220
330
208
330
209
330
1AC
 75
     1
 76
     0
 52
45.0
 41
0.1
 77
     0
 78
     1
 53
45.0
 43
0.0
 44
0.0
 45
-0.0707106781186548
 46
0.0707106781186548
 79
     0
 98
        1
 10
0.0
 20
0.0
  0
HATCH
  5
25B
330
71
100
AcDbEntity
  8
1
  6
Continuous
 62
     2
100
AcDbHatch
 10
0.0
 20
0.0
 30
0.0
210
0.0
220
0.0
230
1.0
  2
_USER
 70
     0
 71
     1
 91
        4
 92
        1
 93
        8
 72
     2
 10
-217.6682018006656
 20
-285.0475499586703
 40
0.4242446153837705
 50
90.0
 51
180.0
 73
     1
 72
     1
 10
-218.0924464160484
 20
-285.0475499586703
 11
-218.0924464160484
 21
-290.6120607278705
 72
     2
 10
-217.6682018006656
 20
-290.6120607278705
 40
0.4242446153828041
 50
180.0
 51
270.0
 73
     1
 72
     1
 10
-217.6682018006656
 20
-291.0363053432538
 11
-212.1948897099488
 21
-291.0363053432538
 72
     2
 10
-212.1948897099488
 20
-290.6120607278705
 40
0.4242446153832589
 50
270.0
 51
360.0
 73
     1
 72
     1
 10
-211.7706450945649
 20
-290.6120607278705
 11
-211.7706450945649
 21
-285.0475499586703
 72
     2
 10
-212.1948897099488
 20
-285.0475499586703
 40
0.4242446153838841
 50
0.0
 51
90.0
 73
     1
 72
     1
 10
-212.1948897099488
 20
-284.6233053432865
 11
-217.6682018006656
 21
-284.6233053432865
 97
        8
330
219
330
176
330
218
330
177
330
20F
330
174
330
21A
330
175
 92
       16
 93
        1
 72
     2
 10
-215.0486161501481
 20
-287.3664321870258
 40
0.470978932778479
 50
0.0
 51
360.0
 73
     1
 97
        1
330
22D
 92
       16
 93
        8
 72
     2
 10
-215.0248011354753
 20
-287.3664321870258
 40
0.9118481501444847
 50
295.3740086781757
 51
424.6259913218075
 73
     1
 72
     2
 10
-214.4987584373874
 20
-286.257290587058
 40
0.315716923076792
 50
115.3740086783518
 51
180.0
 73
     0
 72
     1
 10
-214.8144753604642
 20
-286.257290587058
 11
-214.8144753604642
 21
-285.6517552985512
 72
     2
 10
-214.4987584373874
 20
-285.6517552985512
 40
0.3157169230760711
 50
180.0
 51
269.8110329574541
 73
     0
 72
     2
 10
-214.4931423020774
 20
-287.3545902461203
 40
2.018561131933209
 50
269.8110329575858
 51
450.1889670424142
 73
     0
 72
     2
 10
-214.4987584373874
 20
-289.0574251936893
 40
0.315716923076792
 50
90.1889670425459
 51
180.0
 73
     0
 72
     1
 10
-214.8144753604642
 20
-289.0574251936893
 11
-214.8144753604642
 21
-288.4755737869942
 72
     2
 10
-214.4987584373874
 20
-288.4755737869942
 40
0.3157169230764815
 50
180.0
 51
244.6259913216437
 73
     0
 97
        8
330
227
330
203
330
1AF
330
226
330
204
330
205
330
1AE
330
202
 92
       16
 93
       12
 72
     1
 10
-217.0743071239191
 20
-290.3237497876969
 11
-215.5984738629095
 21
-290.3237497876969
 72
     2
 10
-215.5984738629095
 20
-290.0080328646202
 40
0.3157169230767067
 50
270.0
 51
360.0
 73
     1
 72
     1
 10
-215.2827569398329
 20
-290.0080328646202
 11
-215.2827569398329
 21
-288.4772619330886
 72
     2
 10
-215.5984738629095
 20
-288.4772619330886
 40
0.315716923076593
 50
0.0
 51
64.80558935146027
 73
     1
 72
     2
 10
-215.0758894153345
 20
-287.3664321870258
 40
0.9118975235575889
 50
115.1944106485122
 51
244.805589351471
 73
     0
 72
     2
 10
-215.5984738629095
 20
-286.2556024409636
 40
0.3157169230761203
 50
295.1944106485397
 51
360.0
 73
     1
 72
     1
 10
-215.2827569398329
 20
-286.2556024409636
 11
-215.2827569398329
 21
-285.6515778219031
 72
     2
 10
-215.5984738629095
 20
-285.6515778219031
 40
0.315716923076593
 50
0.0
 51
90.0
 73
     1
 72
     1
 10
-215.5984738629095
 20
-285.3358608988269
 11
-217.0743071239191
 21
-285.3358608988269
 72
     2
 10
-217.0743071239191
 20
-285.6515778219031
 40
0.3157169230761951
 50
90.0
 51
180.0
 73
     1
 72
     1
 10
-217.3900240469948
 20
-285.6515778219031
 11
-217.3900240469948
 21
-290.0080328646202
 72
     2
 10
-217.0743071239191
 20
-290.0080328646202
 40
0.3157169230756836
 50
180.0
 51
270.0
 73
     1
 97
       12
330
17B
330
20C
330
17A
330
21D
330
179
330
21C
330
20D
330
20E
330
178
330
21B
330
173
330
21E
 75
     1
 76
     0
 52
45.0
 41
0.1
 77
     0
 78
     1
 53
45.0
 43
0.0
 44
0.0
 45
-0.0707106781186548
 46
0.0707106781186548
 79
     0
 98
        1
 10
0.0
 20
0.0
  0
HATCH
  5
25C
330
71
100
AcDbEntity
  8
1
  6
Continuous
 62
     2
100
AcDbHatch
 10
0.0
 20
0.0
 30
0.0
210
0.0
220
0.0
230
1.0
  2
_USER
 70
     0
 71
     1
 91
        4
 92
        1
 93
        8
 72
     2
 10
-217.6682018006656
 20
-285.0475499586703
 40
0.4242446153837705
 50
90.0
 51
180.0
 73
     1
 72
     1
 10
-218.0924464160484
 20
-285.0475499586703
 11
-218.0924464160484
 21
-290.6120607278705
 72
     2
 10
-217.6682018006656
 20
-290.6120607278705
 40
0.4242446153828041
 50
180.0
 51
270.0
 73
     1
 72
     1
 10
-217.6682018006656
 20
-291.0363053432538
 11
-212.1948897099488
 21
-291.0363053432538
 72
     2
 10
-212.1948897099488
 20
-290.6120607278705
 40
0.4242446153832589
 50
270.0
 51
360.0
 73
     1
 72
     1
 10
-211.7706450945649
 20
-290.6120607278705
 11
-211.7706450945649
 21
-285.0475499586703
 72
     2
 10
-212.1948897099488
 20
-285.0475499586703
 40
0.4242446153838841
 50
0.0
 51
90.0
 73
     1
 72
     1
 10
-212.1948897099488
 20
-284.6233053432865
 11
-217.6682018006656
 21
-284.6233053432865
 97
        8
330
219
330
176
330
218
330
177
330
20F
330
174
330
21A
330
175
 92
       16
 93
        1
 72
     2
 10
-215.0486161501481
 20
-287.3664321870258
 40
0.470978932778479
 50
0.0
 51
360.0
 73
     1
 97
        1
330
22D
 92
       16
 93
        8
 72
     2
 10
-215.0248011354753
 20
-287.3664321870258
 40
0.9118481501444847
 50
295.3740086781757
 51
424.6259913218075
 73
     1
 72
     2
 10
-214.4987584373874
 20
-286.257290587058
 40
0.315716923076792
 50
115.3740086783518
 51
180.0
 73
     0
 72
     1
 10
-214.8144753604642
 20
-286.257290587058
 11
-214.8144753604642
 21
-285.6517552985512
 72
     2
 10
-214.4987584373874
 20
-285.6517552985512
 40
0.3157169230760711
 50
180.0
 51
269.8110329574541
 73
     0
 72
     2
 10
-214.4931423020774
 20
-287.3545902461203
 40
2.018561131933209
 50
269.8110329575858
 51
450.1889670424142
 73
     0
 72
     2
 10
-214.4987584373874
 20
-289.0574251936893
 40
0.315716923076792
 50
90.1889670425459
 51
180.0
 73
     0
 72
     1
 10
-214.8144753604642
 20
-289.0574251936893
 11
-214.8144753604642
 21
-288.4755737869942
 72
     2
 10
-214.4987584373874
 20
-288.4755737869942
 40
0.3157169230764815
 50
180.0
 51
244.6259913216437
 73
     0
 97
        8
330
227
330
203
330
1AF
330
226
330
204
330
205
330
1AE
330
202
 92
       16
 93
       12
 72
     1
 10
-217.0743071239191
 20
-290.3237497876969
 11
-215.5984738629095
 21
-290.3237497876969
 72
     2
 10
-215.5984738629095
 20
-290.0080328646202
 40
0.3157169230767067
 50
270.0
 51
360.0
 73
     1
 72
     1
 10
-215.2827569398329
 20
-290.0080328646202
 11
-215.2827569398329
 21
-288.4772619330886
 72
     2
 10
-215.5984738629095
 20
-288.4772619330886
 40
0.315716923076593
 50
0.0
 51
64.80558935146027
 73
     1
 72
     2
 10
-215.0758894153345
 20
-287.3664321870258
 40
0.9118975235575889
 50
115.1944106485122
 51
244.805589351471
 73
     0
 72
     2
 10
-215.5984738629095
 20
-286.2556024409636
 40
0.3157169230761203
 50
295.1944106485397
 51
360.0
 73
     1
 72
     1
 10
-215.2827569398329
 20
-286.2556024409636
 11
-215.2827569398329
 21
-285.6515778219031
 72
     2
 10
-215.5984738629095
 20
-285.6515778219031
 40
0.315716923076593
 50
0.0
 51
90.0
 73
     1
 72
     1
 10
-215.5984738629095
 20
-285.3358608988269
 11
-217.0743071239191
 21
-285.3358608988269
 72
     2
 10
-217.0743071239191
 20
-285.6515778219031
 40
0.3157169230761951
 50
90.0
 51
180.0
 73
     1
 72
     1
 10
-217.3900240469948
 20
-285.6515778219031
 11
-217.3900240469948
 21
-290.0080328646202
 72
     2
 10
-217.0743071239191
 20
-290.0080328646202
 40
0.3157169230756836
 50
180.0
 51
270.0
 73
     1
 97
       12
330
17B
330
20C
330
17A
330
21D
330
179
330
21C
330
20D
330
20E
330
178
330
21B
330
173
330
21E
 75
     1
 76
     0
 52
45.0
 41
0.1
 77
     0
 78
     1
 53
45.0
 43
0.0
 44
0.0
 45
-0.0707106781186548
 46
0.0707106781186548
 79
     0
 98
        1
 10
0.0
 20
0.0
  0
HATCH
  5
25D
330
71
100
AcDbEntity
  8
1
  6
Continuous
 62
     2
100
AcDbHatch
 10
0.0
 20
0.0
 30
0.0
210
0.0
220
0.0
230
1.0
  2
_USER
 70
     0
 71
     1
 91
        2
 92
        1
 93
       12
 72
     2
 10
-202.9930377966763
 20
-286.1502101051742
 40
1.526904761905882
 50
90.0
 51
270.0
 73
     1
 72
     1
 10
-202.9930377966763
 20
-287.6771148670795
 11
-199.8427180728953
 21
-287.6771148670795
 72
     1
 10
-199.8427180728953
 20
-287.6771148670795
 11
-199.8427180728953
 21
-286.979101261637
 72
     1
 10
-199.8427180728953
 20
-286.979101261637
 11
-201.178645899323
 21
-286.979101261637
 72
     1
 10
-201.178645899323
 20
-286.979101261637
 11
-201.178645899323
 21
-286.4992169078953
 72
     1
 10
-201.178645899323
 20
-286.4992169078953
 11
-199.8427180728953
 21
-286.4992169078953
 72
     1
 10
-199.8427180728953
 20
-286.4992169078953
 11
-199.8427180728953
 21
-285.801203302453
 72
     1
 10
-199.8427180728953
 20
-285.801203302453
 11
-201.178645899323
 21
-285.801203302453
 72
     1
 10
-201.178645899323
 20
-285.801203302453
 11
-201.178645899323
 21
-285.3213189487113
 72
     1
 10
-201.178645899323
 20
-285.3213189487113
 11
-199.8427180728953
 21
-285.3213189487113
 72
     1
 10
-199.8427180728953
 20
-285.3213189487113
 11
-199.8427180728953
 21
-284.6233053432683
 72
     1
 10
-199.8427180728953
 20
-284.6233053432683
 11
-202.9930377966763
 21
-284.6233053432683
 97
       12
330
16A
330
164
330
18B
330
18A
330
189
330
188
330
165
330
166
330
167
330
168
330
20A
330
169
 92
       16
 93
        4
 72
     2
 10
-202.5770257501648
 20
-286.1502101051742
 40
0.7717997786797075
 50
141.8795802028371
 51
218.1204197971529
 73
     1
 72
     2
 10
-202.7767657865111
 20
-286.3069412832946
 40
0.5179085730134372
 50
218.1204197971511
 51
321.8795802028566
 73
     1
 72
     2
 10
-202.9765058228573
 20
-286.1502101051742
 40
0.7717997786796023
 50
321.8795802028471
 51
398.1204197971629
 73
     1
 72
     2
 10
-202.7767657865111
 20
-285.9934789270537
 40
0.5179085730135266
 50
38.12041979714334
 51
141.8795802028489
 73
     1
 97
        4
330
217
330
216
330
211
330
210
 75
     1
 76
     0
 52
45.0
 41
0.1
 77
     0
 78
     1
 53
45.0
 43
0.0
 44
0.0
 45
-0.0707106781186548
 46
0.0707106781186548
 79
     0
 98
        1
 10
0.0
 20
0.0
  0
HATCH
  5
25E
330
71
100
AcDbEntity
  8
1
  6
Continuous
 62
     2
100
AcDbHatch
 10
0.0
 20
0.0
 30
0.0
210
0.0
220
0.0
230
1.0
  2
_USER
 70
     0
 71
     1
 91
        2
 92
        1
 93
       12
 72
     2
 10
-202.9930377966763
 20
-286.1502101051742
 40
1.526904761905882
 50
90.0
 51
270.0
 73
     1
 72
     1
 10
-202.9930377966763
 20
-287.6771148670795
 11
-199.8427180728953
 21
-287.6771148670795
 72
     1
 10
-199.8427180728953
 20
-287.6771148670795
 11
-199.8427180728953
 21
-286.979101261637
 72
     1
 10
-199.8427180728953
 20
-286.979101261637
 11
-201.178645899323
 21
-286.979101261637
 72
     1
 10
-201.178645899323
 20
-286.979101261637
 11
-201.178645899323
 21
-286.4992169078953
 72
     1
 10
-201.178645899323
 20
-286.4992169078953
 11
-199.8427180728953
 21
-286.4992169078953
 72
     1
 10
-199.8427180728953
 20
-286.4992169078953
 11
-199.8427180728953
 21
-285.801203302453
 72
     1
 10
-199.8427180728953
 20
-285.801203302453
 11
-201.178645899323
 21
-285.801203302453
 72
     1
 10
-201.178645899323
 20
-285.801203302453
 11
-201.178645899323
 21
-285.3213189487113
 72
     1
 10
-201.178645899323
 20
-285.3213189487113
 11
-199.8427180728953
 21
-285.3213189487113
 72
     1
 10
-199.8427180728953
 20
-285.3213189487113
 11
-199.8427180728953
 21
-284.6233053432683
 72
     1
 10
-199.8427180728953
 20
-284.6233053432683
 11
-202.9930377966763
 21
-284.6233053432683
 97
       12
330
16A
330
164
330
18B
330
18A
330
189
330
188
330
165
330
166
330
167
330
168
330
20A
330
169
 92
       16
 93
        4
 72
     2
 10
-202.5770257501648
 20
-286.1502101051742
 40
0.7717997786797075
 50
141.8795802028371
 51
218.1204197971529
 73
     1
 72
     2
 10
-202.7767657865111
 20
-286.3069412832946
 40
0.5179085730134372
 50
218.1204197971511
 51
321.8795802028566
 73
     1
 72
     2
 10
-202.9765058228573
 20
-286.1502101051742
 40
0.7717997786796023
 50
321.8795802028471
 51
398.1204197971629
 73
     1
 72
     2
 10
-202.7767657865111
 20
-285.9934789270537
 40
0.5179085730135266
 50
38.12041979714334
 51
141.8795802028489
 73
     1
 97
        4
330
217
330
216
330
211
330
210
 75
     1
 76
     0
 52
45.0
 41
0.1
 77
     0
 78
     1
 53
45.0
 43
0.0
 44
0.0
 45
-0.0707106781186548
 46
0.0707106781186548
 79
     0
 98
        1
 10
0.0
 20
0.0
  0
HATCH
  5
25F
330
71
100
AcDbEntity
  8
1
  6
Continuous
 62
     2
100
AcDbHatch
 10
0.0
 20
0.0
 30
0.0
210
0.0
220
0.0
230
1.0
  2
_USER
 70
     0
 71
     1
 91
        2
 92
        1
 93
        4
 72
     2
 10
-207.0186531591379
 20
-289.5094005813485
 40
1.458034083651465
 50
117.548148175663
 51
242.451851824338
 73
     1
 72
     2
 10
-206.7377132673046
 20
-288.9708255710452
 40
2.065479772208483
 50
242.4518518243399
 51
297.5481481756875
 73
     1
 72
     2
 10
-206.4567733754713
 20
-289.5094005813485
 40
1.458034083652028
 50
297.5481481757005
 51
422.4518518242985
 73
     1
 72
     2
 10
-206.7377132673046
 20
-290.0479755916513
 40
2.065479772208593
 50
62.45185182430674
 51
117.548148175666
 73
     1
 97
        4
330
215
330
212
330
214
330
213
 92
       16
 93
        4
 72
     2
 10
-206.7377132673046
 20
-289.352669403228
 40
0.5179085730132998
 50
38.12041979714704
 51
141.8795802028588
 73
     1
 72
     2
 10
-206.5379732309585
 20
-289.5094005813485
 40
0.7717997786794457
 50
141.879580202838
 51
218.120419797172
 73
     1
 72
     2
 10
-206.7377132673046
 20
-289.6661317594685
 40
0.5179085730137529
 50
218.1204197971956
 51
321.8795802027985
 73
     1
 72
     2
 10
-206.937453303651
 20
-289.5094005813485
 40
0.7717997786797298
 50
321.8795802028384
 51
398.1204197971516
 73
     1
 97
        4
330
1F8
330
1F9
330
1FA
330
1F7
 75
     1
 76
     0
 52
45.0
 41
0.1
 77
     0
 78
     1
 53
45.0
 43
0.0
 44
0.0
 45
-0.0707106781186548
 46
0.0707106781186548
 79
     0
 98
        1
 10
0.0
 20
0.0
  0
HATCH
  5
260
330
71
100
AcDbEntity
  8
1
  6
Continuous
 62
     2
100
AcDbHatch
 10
0.0
 20
0.0
 30
0.0
210
0.0
220
0.0
230
1.0
  2
_USER
 70
     0
 71
     1
 91
        2
 92
        1
 93
        4
 72
     2
 10
-207.0186531591379
 20
-289.5094005813485
 40
1.458034083651465
 50
117.548148175663
 51
242.451851824338
 73
     1
 72
     2
 10
-206.7377132673046
 20
-288.9708255710452
 40
2.065479772208483
 50
242.4518518243399
 51
297.5481481756875
 73
     1
 72
     2
 10
-206.4567733754713
 20
-289.5094005813485
 40
1.458034083652028
 50
297.5481481757005
 51
422.4518518242985
 73
     1
 72
     2
 10
-206.7377132673046
 20
-290.0479755916513
 40
2.065479772208593
 50
62.45185182430674
 51
117.548148175666
 73
     1
 97
        4
330
215
330
212
330
214
330
213
 92
       16
 93
        4
 72
     2
 10
-206.7377132673046
 20
-289.352669403228
 40
0.5179085730132998
 50
38.12041979714704
 51
141.8795802028588
 73
     1
 72
     2
 10
-206.5379732309585
 20
-289.5094005813485
 40
0.7717997786794457
 50
141.879580202838
 51
218.120419797172
 73
     1
 72
     2
 10
-206.7377132673046
 20
-289.6661317594685
 40
0.5179085730137529
 50
218.1204197971956
 51
321.8795802027985
 73
     1
 72
     2
 10
-206.937453303651
 20
-289.5094005813485
 40
0.7717997786797298
 50
321.8795802028384
 51
398.1204197971516
 73
     1
 97
        4
330
1F8
330
1F9
330
1FA
330
1F7
 75
     1
 76
     0
 52
45.0
 41
0.1
 77
     0
 78
     1
 53
45.0
 43
0.0
 44
0.0
 45
-0.0707106781186548
 46
0.0707106781186548
 79
     0
 98
        1
 10
0.0
 20
0.0
  0
HATCH
  5
261
330
71
100
AcDbEntity
  8
1
  6
Continuous
 62
     2
100
AcDbHatch
 10
0.0
 20
0.0
 30
0.0
210
0.0
220
0.0
230
1.0
  2
_USER
 70
     0
 71
     1
 91
        2
 92
        1
 93
        6
 72
     1
 10
-211.2935280136981
 20
-284.6233053432683
 11
-211.2935280136981
 21
-287.6771148670795
 72
     1
 10
-211.2935280136981
 20
-287.6771148670795
 11
-210.053023603444
 21
-287.6771148670795
 72
     1
 10
-210.053023603444
 20
-287.6771148670795
 11
-210.053023603444
 21
-286.7340366259357
 72
     1
 10
-210.053023603444
 20
-286.7340366259357
 11
-209.2942560156637
 21
-286.7340366259357
 72
     2
 10
-209.2942560156637
 20
-285.678670984602
 40
1.055365641333708
 50
270.0
 51
450.0
 73
     1
 72
     1
 10
-209.2942560156637
 20
-284.6233053432683
 11
-211.2935280136981
 21
-284.6233053432683
 97
        6
330
21F
330
17C
330
172
330
171
330
17E
330
17D
 92
       16
 93
        4
 72
     1
 10
-209.7357285419021
 20
-285.2864111887084
 11
-210.053023603444
 21
-285.2864111887084
 72
     1
 10
-210.053023603444
 20
-285.2864111887084
 11
-210.053023603444
 21
-285.9921388380506
 72
     1
 10
-210.053023603444
 20
-285.9921388380506
 11
-209.7357285419021
 21
-285.9921388380506
 72
     2
 10
-209.7357285419021
 20
-285.6392750133795
 40
0.3528638246710898
 50
270.0
 51
450.0
 73
     1
 97
        4
330
17F
330
170
330
180
330
20B
 75
     1
 76
     0
 52
45.0
 41
0.1
 77
     0
 78
     1
 53
45.0
 43
0.0
 44
0.0
 45
-0.0707106781186548
 46
0.0707106781186548
 79
     0
 98
        1
 10
0.0
 20
0.0
  0
HATCH
  5
262
330
71
100
AcDbEntity
  8
1
  6
Continuous
 62
     2
100
AcDbHatch
 10
0.0
 20
0.0
 30
0.0
210
0.0
220
0.0
230
1.0
  2
_USER
 70
     0
 71
     1
 91
        2
 92
        1
 93
        6
 72
     1
 10
-211.2935280136981
 20
-284.6233053432683
 11
-211.2935280136981
 21
-287.6771148670795
 72
     1
 10
-211.2935280136981
 20
-287.6771148670795
 11
-210.053023603444
 21
-287.6771148670795
 72
     1
 10
-210.053023603444
 20
-287.6771148670795
 11
-210.053023603444
 21
-286.7340366259357
 72
     1
 10
-210.053023603444
 20
-286.7340366259357
 11
-209.2942560156637
 21
-286.7340366259357
 72
     2
 10
-209.2942560156637
 20
-285.678670984602
 40
1.055365641333708
 50
270.0
 51
450.0
 73
     1
 72
     1
 10
-209.2942560156637
 20
-284.6233053432683
 11
-211.2935280136981
 21
-284.6233053432683
 97
        6
330
21F
330
17C
330
172
330
171
330
17E
330
17D
 92
       16
 93
        4
 72
     1
 10
-209.7357285419021
 20
-285.2864111887084
 11
-210.053023603444
 21
-285.2864111887084
 72
     1
 10
-210.053023603444
 20
-285.2864111887084
 11
-210.053023603444
 21
-285.9921388380506
 72
     1
 10
-210.053023603444
 20
-285.9921388380506
 11
-209.7357285419021
 21
-285.9921388380506
 72
     2
 10
-209.7357285419021
 20
-285.6392750133795
 40
0.3528638246710898
 50
270.0
 51
450.0
 73
     1
 97
        4
330
17F
330
170
330
180
330
20B
 75
     1
 76
     0
 52
45.0
 41
0.1
 77
     0
 78
     1
 53
45.0
 43
0.0
 44
0.0
 45
-0.0707106781186548
 46
0.0707106781186548
 79
     0
 98
        1
 10
0.0
 20
0.0
  0
HATCH
  5
263
330
71
100
AcDbEntity
  8
1
  6
Continuous
 62
     2
100
AcDbHatch
 10
0.0
 20
0.0
 30
0.0
210
0.0
220
0.0
230
1.0
  2
_USER
 70
     0
 71
     1
 91
        1
 92
        1
 93
       12
 72
     1
 10
-191.6792448192649
 20
-284.6233053432683
 11
-190.2765206015177
 21
-284.6233053432683
 72
     1
 10
-190.2765206015177
 20
-284.6233053432683
 11
-191.5790502322842
 21
-286.0962558733045
 72
     1
 10
-191.5790502322842
 20
-286.0962558733045
 11
-190.1810971853439
 21
-287.6771148670795
 72
     1
 10
-190.1810971853439
 20
-287.6771148670795
 11
-191.5838214030922
 21
-287.6771148670795
 72
     1
 10
-191.5838214030922
 20
-287.6771148670795
 11
-192.2804123411577
 21
-286.8893830817858
 72
     1
 10
-192.2804123411577
 20
-286.8893830817858
 11
-192.9770032792234
 21
-287.6771148670795
 72
     1
 10
-192.9770032792234
 20
-287.6771148670795
 11
-194.3797274969716
 21
-287.6771148670795
 72
     1
 10
-194.3797274969716
 20
-287.6771148670795
 11
-192.9817744500313
 21
-286.0962558733045
 72
     1
 10
-192.9817744500313
 20
-286.0962558733045
 11
-194.2843040807988
 21
-284.6233053432683
 72
     1
 10
-194.2843040807988
 20
-284.6233053432683
 11
-192.8815798630495
 21
-284.6233053432683
 72
     1
 10
-192.8815798630495
 20
-284.6233053432683
 11
-192.2804123411577
 21
-285.3031286648238
 72
     1
 10
-192.2804123411577
 20
-285.3031286648238
 11
-191.6792448192649
 21
-284.6233053432683
 97
       12
330
14B
330
1A4
330
1A3
330
1A2
330
1A1
330
14C
330
14D
330
149
330
14A
330
1A7
330
1A6
330
1A5
 75
     1
 76
     0
 52
45.0
 41
0.1
 77
     0
 78
     1
 53
45.0
 43
0.0
 44
0.0
 45
-0.0707106781186548
 46
0.0707106781186548
 79
     0
 98
        1
 10
0.0
 20
0.0
  0
HATCH
  5
264
330
71
100
AcDbEntity
  8
1
  6
Continuous
 62
     2
100
AcDbHatch
 10
0.0
 20
0.0
 30
0.0
210
0.0
220
0.0
230
1.0
  2
_USER
 70
     0
 71
     1
 91
        1
 92
        1
 93
       12
 72
     1
 10
-191.6792448192649
 20
-284.6233053432683
 11
-190.2765206015177
 21
-284.6233053432683
 72
     1
 10
-190.2765206015177
 20
-284.6233053432683
 11
-191.5790502322842
 21
-286.0962558733045
 72
     1
 10
-191.5790502322842
 20
-286.0962558733045
 11
-190.1810971853439
 21
-287.6771148670795
 72
     1
 10
-190.1810971853439
 20
-287.6771148670795
 11
-191.5838214030922
 21
-287.6771148670795
 72
     1
 10
-191.5838214030922
 20
-287.6771148670795
 11
-192.2804123411577
 21
-286.8893830817858
 72
     1
 10
-192.2804123411577
 20
-286.8893830817858
 11
-192.9770032792234
 21
-287.6771148670795
 72
     1
 10
-192.9770032792234
 20
-287.6771148670795
 11
-194.3797274969716
 21
-287.6771148670795
 72
     1
 10
-194.3797274969716
 20
-287.6771148670795
 11
-192.9817744500313
 21
-286.0962558733045
 72
     1
 10
-192.9817744500313
 20
-286.0962558733045
 11
-194.2843040807988
 21
-284.6233053432683
 72
     1
 10
-194.2843040807988
 20
-284.6233053432683
 11
-192.8815798630495
 21
-284.6233053432683
 72
     1
 10
-192.8815798630495
 20
-284.6233053432683
 11
-192.2804123411577
 21
-285.3031286648238
 72
     1
 10
-192.2804123411577
 20
-285.3031286648238
 11
-191.6792448192649
 21
-284.6233053432683
 97
       12
330
14B
330
1A4
330
1A3
330
1A2
330
1A1
330
14C
330
14D
330
149
330
14A
330
1A7
330
1A6
330
1A5
 75
     1
 76
     0
 52
45.0
 41
0.1
 77
     0
 78
     1
 53
45.0
 43
0.0
 44
0.0
 45
-0.0707106781186548
 46
0.0707106781186548
 79
     0
 98
        1
 10
0.0
 20
0.0
  0
HATCH
  5
265
330
71
100
AcDbEntity
  8
1
  6
Continuous
 62
     2
100
AcDbHatch
 10
0.0
 20
0.0
 30
0.0
210
0.0
220
0.0
230
1.0
  2
_USER
 70
     0
 71
     1
 91
        1
 92
        1
 93
        4
 72
     1
 10
-194.4990067671885
 20
-284.6233053432683
 11
-194.4990067671885
 21
-287.6771148670795
 72
     1
 10
-194.4990067671885
 20
-287.6771148670795
 11
-195.7395111774414
 21
-287.6771148670795
 72
     1
 10
-195.7395111774414
 20
-287.6771148670795
 11
-195.7395111774414
 21
-284.6233053432683
 72
     1
 10
-195.7395111774414
 20
-284.6233053432683
 11
-194.4990067671885
 21
-284.6233053432683
 97
        4
330
19F
330
14E
330
19E
330
1A0
 75
     1
 76
     0
 52
45.0
 41
0.1
 77
     0
 78
     1
 53
45.0
 43
0.0
 44
0.0
 45
-0.0707106781186548
 46
0.0707106781186548
 79
     0
 98
        1
 10
0.0
 20
0.0
  0
HATCH
  5
266
330
71
100
AcDbEntity
  8
1
  6
Continuous
 62
     2
100
AcDbHatch
 10
0.0
 20
0.0
 30
0.0
210
0.0
220
0.0
230
1.0
  2
_USER
 70
     0
 71
     1
 91
        1
 92
        1
 93
        4
 72
     1
 10
-194.4990067671885
 20
-284.6233053432683
 11
-194.4990067671885
 21
-287.6771148670795
 72
     1
 10
-194.4990067671885
 20
-287.6771148670795
 11
-195.7395111774414
 21
-287.6771148670795
 72
     1
 10
-195.7395111774414
 20
-287.6771148670795
 11
-195.7395111774414
 21
-284.6233053432683
 72
     1
 10
-195.7395111774414
 20
-284.6233053432683
 11
-194.4990067671885
 21
-284.6233053432683
 97
        4
330
19F
330
14E
330
19E
330
1A0
 75
     1
 76
     0
 52
45.0
 41
0.1
 77
     0
 78
     1
 53
45.0
 43
0.0
 44
0.0
 45
-0.0707106781186548
 46
0.0707106781186548
 79
     0
 98
        1
 10
0.0
 20
0.0
  0
HATCH
  5
267
330
71
100
AcDbEntity
  8
1
  6
Continuous
 62
     2
100
AcDbHatch
 10
0.0
 20
0.0
 30
0.0
210
0.0
220
0.0
230
1.0
  2
_USER
 70
     0
 71
     1
 91
        2
 92
        1
 93
        8
 72
     1
 10
-194.8894507707205
 20
-291.0363053432538
 11
-196.1299551809744
 21
-291.0363053432538
 72
     1
 10
-196.1299551809744
 20
-291.0363053432538
 11
-196.3414352344502
 21
-290.4953447990359
 72
     1
 10
-196.3414352344502
 20
-290.4953447990359
 11
-197.473876811124
 21
-290.4953447990359
 72
     1
 10
-197.473876811124
 20
-290.4953447990359
 11
-197.6853568645998
 21
-291.0363053432538
 72
     1
 10
-197.6853568645998
 20
-291.0363053432538
 11
-198.9258612748528
 21
-291.0363053432538
 72
     1
 10
-198.9258612748528
 20
-291.0363053432538
 11
-197.5279082279135
 21
-287.9824958194427
 72
     1
 10
-197.5279082279135
 20
-287.9824958194427
 11
-196.2874038176608
 21
-287.9824958194427
 72
     1
 10
-196.2874038176608
 20
-287.9824958194427
 11
-194.8894507707205
 21
-291.0363053432538
 97
        8
330
19A
330
154
330
199
330
19C
330
151
330
19B
330
152
330
153
 92
       16
 93
        3
 72
     1
 10
-197.207821259979
 20
-289.8147815337293
 11
-196.6074907855965
 21
-289.8147815337293
 72
     1
 10
-196.6074907855965
 20
-289.8147815337293
 11
-196.9076560227866
 21
-289.0469665677426
 72
     1
 10
-196.9076560227866
 20
-289.0469665677426
 11
-197.207821259979
 21
-289.8147815337293
 97
        3
330
150
330
14F
330
19D
 75
     1
 76
     0
 52
45.0
 41
0.1
 77
     0
 78
     1
 53
45.0
 43
0.0
 44
0.0
 45
-0.0707106781186548
 46
0.0707106781186548
 79
     0
 98
        1
 10
0.0
 20
0.0
  0
HATCH
  5
268
330
71
100
AcDbEntity
  8
1
  6
Continuous
 62
     2
100
AcDbHatch
 10
0.0
 20
0.0
 30
0.0
210
0.0
220
0.0
230
1.0
  2
_USER
 70
     0
 71
     1
 91
        2
 92
        1
 93
        8
 72
     1
 10
-194.8894507707205
 20
-291.0363053432538
 11
-196.1299551809744
 21
-291.0363053432538
 72
     1
 10
-196.1299551809744
 20
-291.0363053432538
 11
-196.3414352344502
 21
-290.4953447990359
 72
     1
 10
-196.3414352344502
 20
-290.4953447990359
 11
-197.473876811124
 21
-290.4953447990359
 72
     1
 10
-197.473876811124
 20
-290.4953447990359
 11
-197.6853568645998
 21
-291.0363053432538
 72
     1
 10
-197.6853568645998
 20
-291.0363053432538
 11
-198.9258612748528
 21
-291.0363053432538
 72
     1
 10
-198.9258612748528
 20
-291.0363053432538
 11
-197.5279082279135
 21
-287.9824958194427
 72
     1
 10
-197.5279082279135
 20
-287.9824958194427
 11
-196.2874038176608
 21
-287.9824958194427
 72
     1
 10
-196.2874038176608
 20
-287.9824958194427
 11
-194.8894507707205
 21
-291.0363053432538
 97
        8
330
19A
330
154
330
199
330
19C
330
151
330
19B
330
152
330
153
 92
       16
 93
        3
 72
     1
 10
-197.207821259979
 20
-289.8147815337293
 11
-196.6074907855965
 21
-289.8147815337293
 72
     1
 10
-196.6074907855965
 20
-289.8147815337293
 11
-196.9076560227866
 21
-289.0469665677426
 72
     1
 10
-196.9076560227866
 20
-289.0469665677426
 11
-197.207821259979
 21
-289.8147815337293
 97
        3
330
150
330
14F
330
19D
 75
     1
 76
     0
 52
45.0
 41
0.1
 77
     0
 78
     1
 53
45.0
 43
0.0
 44
0.0
 45
-0.0707106781186548
 46
0.0707106781186548
 79
     0
 98
        1
 10
0.0
 20
0.0
  0
HATCH
  5
269
330
71
100
AcDbEntity
  8
1
  6
Continuous
 62
     2
100
AcDbHatch
 10
0.0
 20
0.0
 30
0.0
210
0.0
220
0.0
230
1.0
  2
_USER
 70
     0
 71
     1
 91
        1
 92
        1
 93
        8
 72
     1
 10
-201.083373414035
 20
-287.9824958194427
 11
-201.083373414035
 21
-288.7677611255663
 72
     1
 10
-201.083373414035
 20
-288.7677611255663
 11
-200.2722743765604
 21
-288.7677611255663
 72
     1
 10
-200.2722743765604
 20
-288.7677611255663
 11
-200.2722743765604
 21
-291.0363053432538
 72
     1
 10
-200.2722743765604
 20
-291.0363053432538
 11
-199.0794816743939
 21
-291.0363053432538
 72
     1
 10
-199.0794816743939
 20
-291.0363053432538
 11
-199.0794816743939
 21
-288.7677611255663
 72
     1
 10
-199.0794816743939
 20
-288.7677611255663
 11
-198.2683826369214
 21
-288.7677611255663
 72
     1
 10
-198.2683826369214
 20
-288.7677611255663
 11
-198.2683826369214
 21
-287.9824958194427
 72
     1
 10
-198.2683826369214
 20
-287.9824958194427
 11
-201.083373414035
 21
-287.9824958194427
 97
        8
330
196
330
195
330
194
330
155
330
156
330
198
330
157
330
197
 75
     1
 76
     0
 52
45.0
 41
0.1
 77
     0
 78
     1
 53
45.0
 43
0.0
 44
0.0
 45
-0.0707106781186548
 46
0.0707106781186548
 79
     0
 98
        1
 10
0.0
 20
0.0
  0
HATCH
  5
26A
330
71
100
AcDbEntity
  8
1
  6
Continuous
 62
     2
100
AcDbHatch
 10
0.0
 20
0.0
 30
0.0
210
0.0
220
0.0
230
1.0
  2
_USER
 70
     0
 71
     1
 91
        1
 92
        1
 93
        8
 72
     1
 10
-201.083373414035
 20
-287.9824958194427
 11
-201.083373414035
 21
-288.7677611255663
 72
     1
 10
-201.083373414035
 20
-288.7677611255663
 11
-200.2722743765604
 21
-288.7677611255663
 72
     1
 10
-200.2722743765604
 20
-288.7677611255663
 11
-200.2722743765604
 21
-291.0363053432538
 72
     1
 10
-200.2722743765604
 20
-291.0363053432538
 11
-199.0794816743939
 21
-291.0363053432538
 72
     1
 10
-199.0794816743939
 20
-291.0363053432538
 11
-199.0794816743939
 21
-288.7677611255663
 72
     1
 10
-199.0794816743939
 20
-288.7677611255663
 11
-198.2683826369214
 21
-288.7677611255663
 72
     1
 10
-198.2683826369214
 20
-288.7677611255663
 11
-198.2683826369214
 21
-287.9824958194427
 72
     1
 10
-198.2683826369214
 20
-287.9824958194427
 11
-201.083373414035
 21
-287.9824958194427
 97
        8
330
196
330
195
330
194
330
155
330
156
330
198
330
157
330
197
 75
     1
 76
     0
 52
45.0
 41
0.1
 77
     0
 78
     1
 53
45.0
 43
0.0
 44
0.0
 45
-0.0707106781186548
 46
0.0707106781186548
 79
     0
 98
        1
 10
0.0
 20
0.0
  0
HATCH
  5
26B
330
71
100
AcDbEntity
  8
1
  6
Continuous
 62
     2
100
AcDbHatch
 10
0.0
 20
0.0
 30
0.0
210
0.0
220
0.0
230
1.0
  2
_USER
 70
     0
 71
     1
 91
        1
 92
        1
 93
       10
 72
     1
 10
-198.4113668302959
 20
-284.6233053432683
 11
-199.6041595324624
 21
-284.6233053432683
 72
     1
 10
-199.6041595324624
 20
-284.6233053432683
 11
-199.6041595324624
 21
-287.6771148670795
 72
     1
 10
-199.6041595324624
 20
-287.6771148670795
 11
-198.4113668302959
 21
-287.6771148670795
 72
     1
 10
-198.4113668302959
 20
-287.6771148670795
 11
-198.4113668302959
 21
-286.3683393568748
 72
     1
 10
-198.4113668302959
 20
-286.3683393568748
 11
-197.1708624200419
 21
-287.6771148670795
 72
     1
 10
-197.1708624200419
 20
-287.6771148670795
 11
-195.9780697178753
 21
-287.6771148670795
 72
     1
 10
-195.9780697178753
 20
-287.6771148670795
 11
-195.9780697178753
 21
-284.6233053432683
 72
     1
 10
-195.9780697178753
 20
-284.6233053432683
 11
-197.1708624200419
 21
-284.6233053432683
 72
     1
 10
-197.1708624200419
 20
-284.6233053432683
 11
-197.1708624200419
 21
-285.9320808534735
 72
     1
 10
-197.1708624200419
 20
-285.9320808534735
 11
-198.4113668302959
 21
-284.6233053432683
 97
       10
330
190
330
15A
330
15B
330
15C
330
15D
330
193
330
158
330
192
330
191
330
159
 75
     1
 76
     0
 52
45.0
 41
0.1
 77
     0
 78
     1
 53
45.0
 43
0.0
 44
0.0
 45
-0.0707106781186548
 46
0.0707106781186548
 79
     0
 98
        1
 10
0.0
 20
0.0
  0
HATCH
  5
26C
330
71
100
AcDbEntity
  8
1
  6
Continuous
 62
     2
100
AcDbHatch
 10
0.0
 20
0.0
 30
0.0
210
0.0
220
0.0
230
1.0
  2
_USER
 70
     0
 71
     1
 91
        1
 92
        1
 93
       10
 72
     1
 10
-198.4113668302959
 20
-284.6233053432683
 11
-199.6041595324624
 21
-284.6233053432683
 72
     1
 10
-199.6041595324624
 20
-284.6233053432683
 11
-199.6041595324624
 21
-287.6771148670795
 72
     1
 10
-199.6041595324624
 20
-287.6771148670795
 11
-198.4113668302959
 21
-287.6771148670795
 72
     1
 10
-198.4113668302959
 20
-287.6771148670795
 11
-198.4113668302959
 21
-286.3683393568748
 72
     1
 10
-198.4113668302959
 20
-286.3683393568748
 11
-197.1708624200419
 21
-287.6771148670795
 72
     1
 10
-197.1708624200419
 20
-287.6771148670795
 11
-195.9780697178753
 21
-287.6771148670795
 72
     1
 10
-195.9780697178753
 20
-287.6771148670795
 11
-195.9780697178753
 21
-284.6233053432683
 72
     1
 10
-195.9780697178753
 20
-284.6233053432683
 11
-197.1708624200419
 21
-284.6233053432683
 72
     1
 10
-197.1708624200419
 20
-284.6233053432683
 11
-197.1708624200419
 21
-285.9320808534735
 72
     1
 10
-197.1708624200419
 20
-285.9320808534735
 11
-198.4113668302959
 21
-284.6233053432683
 97
       10
330
190
330
15A
330
15B
330
15C
330
15D
330
193
330
158
330
192
330
191
330
159
 75
     1
 76
     0
 52
45.0
 41
0.1
 77
     0
 78
     1
 53
45.0
 43
0.0
 44
0.0
 45
-0.0707106781186548
 46
0.0707106781186548
 79
     0
 98
        1
 10
0.0
 20
0.0
  0
HATCH
  5
26D
330
71
100
AcDbEntity
  8
1
  6
Continuous
 62
     2
100
AcDbHatch
 10
0.0
 20
0.0
 30
0.0
210
0.0
220
0.0
230
1.0
  2
_USER
 70
     0
 71
     1
 91
        1
 92
        1
 93
       10
 72
     1
 10
-203.6598056507145
 20
-287.9824958194427
 11
-204.8525983528821
 21
-287.9824958194427
 72
     1
 10
-204.8525983528821
 20
-287.9824958194427
 11
-204.8525983528821
 21
-291.0363053432538
 72
     1
 10
-204.8525983528821
 20
-291.0363053432538
 11
-203.6598056507145
 21
-291.0363053432538
 72
     1
 10
-203.6598056507145
 20
-291.0363053432538
 11
-203.6598056507145
 21
-289.7275298330492
 72
     1
 10
-203.6598056507145
 20
-289.7275298330492
 11
-202.4193012404616
 21
-291.0363053432538
 72
     1
 10
-202.4193012404616
 20
-291.0363053432538
 11
-201.2265085382952
 21
-291.0363053432538
 72
     1
 10
-201.2265085382952
 20
-291.0363053432538
 11
-201.2265085382952
 21
-287.9824958194427
 72
     1
 10
-201.2265085382952
 20
-287.9824958194427
 11
-202.4193012404616
 21
-287.9824958194427
 72
     1
 10
-202.4193012404616
 20
-287.9824958194427
 11
-202.4193012404616
 21
-289.2912713296478
 72
     1
 10
-202.4193012404616
 20
-289.2912713296478
 11
-203.6598056507145
 21
-287.9824958194427
 97
       10
330
15F
330
160
330
161
330
18D
330
162
330
163
330
18C
330
18F
330
18E
330
15E
 75
     1
 76
     0
 52
45.0
 41
0.1
 77
     0
 78
     1
 53
45.0
 43
0.0
 44
0.0
 45
-0.0707106781186548
 46
0.0707106781186548
 79
     0
 98
        1
 10
0.0
 20
0.0
  0
HATCH
  5
26E
330
71
100
AcDbEntity
  8
1
  6
Continuous
 62
     2
100
AcDbHatch
 10
0.0
 20
0.0
 30
0.0
210
0.0
220
0.0
230
1.0
  2
_USER
 70
     0
 71
     1
 91
        1
 92
        1
 93
       10
 72
     1
 10
-203.6598056507145
 20
-287.9824958194427
 11
-204.8525983528821
 21
-287.9824958194427
 72
     1
 10
-204.8525983528821
 20
-287.9824958194427
 11
-204.8525983528821
 21
-291.0363053432538
 72
     1
 10
-204.8525983528821
 20
-291.0363053432538
 11
-203.6598056507145
 21
-291.0363053432538
 72
     1
 10
-203.6598056507145
 20
-291.0363053432538
 11
-203.6598056507145
 21
-289.7275298330492
 72
     1
 10
-203.6598056507145
 20
-289.7275298330492
 11
-202.4193012404616
 21
-291.0363053432538
 72
     1
 10
-202.4193012404616
 20
-291.0363053432538
 11
-201.2265085382952
 21
-291.0363053432538
 72
     1
 10
-201.2265085382952
 20
-291.0363053432538
 11
-201.2265085382952
 21
-287.9824958194427
 72
     1
 10
-201.2265085382952
 20
-287.9824958194427
 11
-202.4193012404616
 21
-287.9824958194427
 72
     1
 10
-202.4193012404616
 20
-287.9824958194427
 11
-202.4193012404616
 21
-289.2912713296478
 72
     1
 10
-202.4193012404616
 20
-289.2912713296478
 11
-203.6598056507145
 21
-287.9824958194427
 97
       10
330
15F
330
160
330
161
330
18D
330
162
330
163
330
18C
330
18F
330
18E
330
15E
 75
     1
 76
     0
 52
45.0
 41
0.1
 77
     0
 78
     1
 53
45.0
 43
0.0
 44
0.0
 45
-0.0707106781186548
 46
0.0707106781186548
 79
     0
 98
        1
 10
0.0
 20
0.0
  0
HATCH
  5
26F
330
71
100
AcDbEntity
  8
1
  6
Continuous
 62
     2
100
AcDbHatch
 10
0.0
 20
0.0
 30
0.0
210
0.0
220
0.0
230
1.0
  2
_USER
 70
     0
 71
     1
 91
        1
 92
        1
 93
       12
 72
     1
 10
-204.6616005896499
 20
-284.6233053432683
 11
-204.6616005896499
 21
-287.6771148670795
 72
     1
 10
-204.6616005896499
 20
-287.6771148670795
 11
-205.8543932918163
 21
-287.6771148670795
 72
     1
 10
-205.8543932918163
 20
-287.6771148670795
 11
-205.8543932918163
 21
-286.5428427582357
 72
     1
 10
-205.8543932918163
 20
-286.5428427582357
 11
-206.9040508697238
 21
-286.5428427582357
 72
     1
 10
-206.9040508697238
 20
-286.5428427582357
 11
-206.9040508697238
 21
-287.6771148670795
 72
     1
 10
-206.9040508697238
 20
-287.6771148670795
 11
-208.0968435718904
 21
-287.6771148670795
 72
     1
 10
-208.0968435718904
 20
-287.6771148670795
 11
-208.0968435718904
 21
-284.6233053432683
 72
     1
 10
-208.0968435718904
 20
-284.6233053432683
 11
-206.9040508697238
 21
-284.6233053432683
 72
     1
 10
-206.9040508697238
 20
-284.6233053432683
 11
-206.9040508697238
 21
-285.6921386766029
 72
     1
 10
-206.9040508697238
 20
-285.6921386766029
 11
-205.8543932918163
 21
-285.6921386766029
 72
     1
 10
-205.8543932918163
 20
-285.6921386766029
 11
-205.8543932918163
 21
-284.6233053432683
 72
     1
 10
-205.8543932918163
 20
-284.6233053432683
 11
-204.6616005896499
 21
-284.6233053432683
 97
       12
330
187
330
186
330
185
330
16D
330
16E
330
184
330
16F
330
183
330
182
330
181
330
16B
330
16C
 75
     1
 76
     0
 52
45.0
 41
0.1
 77
     0
 78
     1
 53
45.0
 43
0.0
 44
0.0
 45
-0.0707106781186548
 46
0.0707106781186548
 79
     0
 98
        1
 10
0.0
 20
0.0
  0
HATCH
  5
270
330
71
100
AcDbEntity
  8
1
  6
Continuous
 62
     2
100
AcDbHatch
 10
0.0
 20
0.0
 30
0.0
210
0.0
220
0.0
230
1.0
  2
_USER
 70
     0
 71
     1
 91
        1
 92
        1
 93
       12
 72
     1
 10
-204.6616005896499
 20
-284.6233053432683
 11
-204.6616005896499
 21
-287.6771148670795
 72
     1
 10
-204.6616005896499
 20
-287.6771148670795
 11
-205.8543932918163
 21
-287.6771148670795
 72
     1
 10
-205.8543932918163
 20
-287.6771148670795
 11
-205.8543932918163
 21
-286.5428427582357
 72
     1
 10
-205.8543932918163
 20
-286.5428427582357
 11
-206.9040508697238
 21
-286.5428427582357
 72
     1
 10
-206.9040508697238
 20
-286.5428427582357
 11
-206.9040508697238
 21
-287.6771148670795
 72
     1
 10
-206.9040508697238
 20
-287.6771148670795
 11
-208.0968435718904
 21
-287.6771148670795
 72
     1
 10
-208.0968435718904
 20
-287.6771148670795
 11
-208.0968435718904
 21
-284.6233053432683
 72
     1
 10
-208.0968435718904
 20
-284.6233053432683
 11
-206.9040508697238
 21
-284.6233053432683
 72
     1
 10
-206.9040508697238
 20
-284.6233053432683
 11
-206.9040508697238
 21
-285.6921386766029
 72
     1
 10
-206.9040508697238
 20
-285.6921386766029
 11
-205.8543932918163
 21
-285.6921386766029
 72
     1
 10
-205.8543932918163
 20
-285.6921386766029
 11
-205.8543932918163
 21
-284.6233053432683
 72
     1
 10
-205.8543932918163
 20
-284.6233053432683
 11
-204.6616005896499
 21
-284.6233053432683
 97
       12
330
187
330
186
330
185
330
16D
330
16E
330
184
330
16F
330
183
330
182
330
181
330
16B
330
16C
 75
     1
 76
     0
 52
45.0
 41
0.1
 77
     0
 78
     1
 53
45.0
 43
0.0
 44
0.0
 45
-0.0707106781186548
 46
0.0707106781186548
 79
     0
 98
        1
 10
0.0
 20
0.0
  0
ENDBLK
  5
73
330
71
100
AcDbEntity
  8
0
100
AcDbBlockEnd
  0
BLOCK
  5
75
330
74
100
AcDbEntity
  8
0
100
AcDbBlockBegin
  2
_punkt
 70
     0
 10
-92.784296775861
 20
-298.3298053432701
 30
0.0
  3
_punkt
  1

  0
LINE
  5
271
330
74
100
AcDbEntity
  8
1
  6
Continuous
 62
     2
100
AcDbLine
 10
-92.784296775861
 20
-298.3298053432701
 30
0.0
 11
-92.784296775861
 21
-303.3298053432702
 31
0.0
  0
LINE
  5
272
330
74
100
AcDbEntity
  8
1
  6
Continuous
 62
     2
100
AcDbLine
 10
-92.784296775861
 20
-298.3298053432701
 30
0.0
 11
-87.784296775862
 21
-298.3298053432701
 31
0.0
  0
ENDBLK
  5
76
330
74
100
AcDbEntity
  8
0
100
AcDbBlockEnd
  0
BLOCK
  5
7A
330
77
100
AcDbEntity
  8
0
100
AcDbBlockBegin
  2
A4I_CS
 70
     0
 10
-92.784296775861
 20
-303.3298053432702
 30
0.0
  3
A4I_CS
  1

  0
INSERT
  5
78
330
77
100
AcDbEntity
  8
1
100
AcDbBlockReference
  2
_rahmen
 10
-92.784296775861
 20
-303.3298053432702
 30
0.0
  0
INSERT
  5
79
330
77
100
AcDbEntity
  8
1
100
AcDbBlockReference
  2
_punkt
 10
-92.784296775861
 20
-298.3298053432701
 30
0.0
  0
ENDBLK
  5
7B
330
77
100
AcDbEntity
  8
0
100
AcDbBlockEnd
  0
BLOCK
  5
84
330
7C
100
AcDbEntity
  8
0
100
AcDbBlockBegin
  2
1
 70
     0
 10
0.0
 20
0.0
 30
0.0
  3
1
  1

  0
INSERT
  5
7D
330
7C
100
AcDbEntity
  8
0
100
AcDbBlockReference
  2
Back1
 10
-171.1000008583219
 20
-155.99999999994
 30
0.0
  0
INSERT
  5
7E
330
7C
100
AcDbEntity
  8
0
100
AcDbBlockReference
  2
Front1
 10
-278.99999999998
 20
-155.99999999994
 30
0.0
  0
INSERT
  5
7F
330
7C
100
AcDbEntity
  8
0
100
AcDbBlockReference
  2
Gen1
 10
-135.9999999999899
 20
-238.99999999996
 30
0.0
  0
INSERT
  5
80
330
7C
100
AcDbEntity
  8
0
100
AcDbBlockReference
  2
Left1
 10
-227.0500004291434
 20
-155.99999999994
 30
0.0
  0
INSERT
  5
81
330
7C
100
AcDbEntity
  8
0
100
AcDbBlockReference
  2
Right1
 10
-347.9499995708567
 20
-155.99999999994
 30
0.0
  0
INSERT
  5
82
330
7C
100
AcDbEntity
  8
0
100
AcDbBlockReference
  2
Top1
 10
-278.99999999998
 20
-217.9499995112519
 30
0.0
  0
INSERT
  5
83
330
7C
100
AcDbEntity
  8
0
100
AcDbBlockReference
  2
A4I_CS
 10
-92.784296775861
 20
-303.3298053432702
 30
0.0
  0
ENDBLK
  5
85
330
7C
100
AcDbEntity
  8
0
100
AcDbBlockEnd
  0
BLOCK
  5
B1
330
A9
100
AcDbEntity
  8
0
100
AcDbBlockBegin
  2
*D17
 70
     1
 10
0.0
 20
0.0
 30
0.0
  3
*D17
  1

  0
LINE
  5
AA
330
A9
100
AcDbEntity
  8
1
  6
Continuous
 62
     2
100
AcDbLine
 10
-279.0000001793177
 20
-177.0000003372502
 30
0.0
 11
-263.0000001793158
 21
-177.0000003372502
 31
0.0
  0
LINE
  5
AB
330
A9
100
AcDbEntity
  8
1
  6
Continuous
 62
     2
100
AcDbLine
 10
-279.0000001793177
 20
-167.0000003372502
 30
0.0
 11
-279.0000001793177
 21
-178.5000003372502
 31
0.0
  0
LINE
  5
AC
330
A9
100
AcDbEntity
  8
1
  6
Continuous
 62
     2
100
AcDbLine
 10
-263.0000001793158
 20
-158.7000003372502
 30
0.0
 11
-263.0000001793158
 21
-178.5000003372502
 31
0.0
  0
SOLID
  5
AD
330
A9
100
AcDbEntity
  8
1
 62
     2
100
AcDbTrace
 10
-275.5000001793177
 20
-176.5392165956943
 30
0.0
 11
-275.5000001793177
 21
-177.4607840788061
 31
0.0
 12
-279.0000001793177
 22
-177.0000003372502
 32
0.0
 13
-279.0000001793177
 23
-177.0000003372502
 33
0.0
  0
SOLID
  5
AE
330
A9
100
AcDbEntity
  8
1
 62
     2
100
AcDbTrace
 10
-266.5000001793158
 20
-177.4607840788061
 30
0.0
 11
-266.5000001793158
 21
-176.5392165956943
 31
0.0
 12
-263.0000001793158
 22
-177.0000003372502
 32
0.0
 13
-263.0000001793158
 23
-177.0000003372502
 33
0.0
  0
MTEXT
  5
B0
330
A9
100
AcDbEntity
  8
1
 62
     3
100
AcDbMText
 10
-274.065340029947
 20
-175.5000003372502
 30
0.0
 40
3.5
 41
0.0
 71
     7
 72
     1
  1
16
  7
CONVERTER_11
 11
0.9999999999970619
 21
2.424068405545306E-6
 31
0.0
 73
     1
 44
0.60024009603842
  0
ENDBLK
  5
B2
330
A9
100
AcDbEntity
  8
0
100
AcDbBlockEnd
  0
BLOCK
  5
BC
330
B5
100
AcDbEntity
  8
0
100
AcDbBlockBegin
  2
*D18
 70
     1
 10
0.0
 20
0.0
 30
0.0
  3
*D18
  1

  0
LINE
  5
B6
330
B5
100
AcDbEntity
  8
1
  6
Continuous
 62
     2
100
AcDbLine
 10
-295.0000001793196
 20
-185.231126130383
 30
0.0
 11
-263.0000001793158
 21
-185.231126130383
 31
0.0
  0
LINE
  5
B7
330
B5
100
AcDbEntity
  8
1
  6
Continuous
 62
     2
100
AcDbLine
 10
-295.0000001793196
 20
-158.7000003372503
 30
0.0
 11
-295.0000001793196
 21
-186.731126130383
 31
0.0
  0
LINE
  5
B8
330
B5
100
AcDbEntity
  8
1
  6
Continuous
 62
     2
100
AcDbLine
 10
-263.0000001793158
 20
-158.7000003372503
 30
0.0
 11
-263.0000001793158
 21
-186.731126130383
 31
0.0
  0
SOLID
  5
B9
330
B5
100
AcDbEntity
  8
1
 62
     2
100
AcDbTrace
 10
-291.5000001793196
 20
-184.7703423888271
 30
0.0
 11
-291.5000001793196
 21
-185.6919098719389
 31
0.0
 12
-295.0000001793196
 22
-185.231126130383
 32
0.0
 13
-295.0000001793196
 23
-185.231126130383
 33
0.0
  0
SOLID
  5
BA
330
B5
100
AcDbEntity
  8
1
 62
     2
100
AcDbTrace
 10
-266.5000001793158
 20
-185.6919098719389
 30
0.0
 11
-266.5000001793158
 21
-184.7703423888271
 31
0.0
 12
-263.0000001793158
 22
-185.231126130383
 32
0.0
 13
-263.0000001793158
 23
-185.231126130383
 33
0.0
  0
MTEXT
  5
BB
330
B5
100
AcDbEntity
  8
1
 62
     3
100
AcDbMText
 10
-281.859869016166
 20
-183.731126130383
 30
0.0
 40
3.5
 41
0.0
 71
     7
 72
     1
  1
32
  7
CONVERTER_11
 11
0.9999999999970619
 21
2.424068405545306E-6
 31
0.0
 73
     1
 44
0.60024009603842
  0
ENDBLK
  5
BD
330
B5
100
AcDbEntity
  8
0
100
AcDbBlockEnd
  0
BLOCK
  5
C7
330
C0
100
AcDbEntity
  8
0
100
AcDbBlockBegin
  2
*D19
 70
     1
 10
0.0
 20
0.0
 30
0.0
  3
*D19
  1

  0
LINE
  5
C1
330
C0
100
AcDbEntity
  8
1
  6
Continuous
 62
     2
100
AcDbLine
 10
-305.0000001793198
 20
-145.0000003372502
 30
0.0
 11
-305.0000001793198
 21
-167.0000003372502
 31
0.0
  0
LINE
  5
C2
330
C0
100
AcDbEntity
  8
1
  6
Continuous
 62
     2
100
AcDbLine
 10
-283.1000001793175
 20
-145.0000003372502
 30
0.0
 11
-306.5000001793198
 21
-145.0000003372502
 31
0.0
  0
LINE
  5
C3
330
C0
100
AcDbEntity
  8
1
  6
Continuous
 62
     2
100
AcDbLine
 10
-293.0837941929772
 20
-167.0000003372502
 30
0.0
 11
-306.5000001793198
 21
-167.0000003372502
 31
0.0
  0
SOLID
  5
C4
330
C0
100
AcDbEntity
  8
1
 62
     2
100
AcDbTrace
 10
-304.5392164377639
 20
-148.5000003372502
 30
0.0
 11
-305.4607839208757
 21
-148.5000003372502
 31
0.0
 12
-305.0000001793198
 22
-145.0000003372502
 32
0.0
 13
-305.0000001793198
 23
-145.0000003372502
 33
0.0
  0
SOLID
  5
C5
330
C0
100
AcDbEntity
  8
1
 62
     2
100
AcDbTrace
 10
-305.4607839208757
 20
-163.5000003372502
 30
0.0
 11
-304.5392164377639
 21
-163.5000003372502
 31
0.0
 12
-305.0000001793198
 22
-167.0000003372502
 32
0.0
 13
-305.0000001793198
 23
-167.0000003372502
 33
0.0
  0
MTEXT
  5
C6
330
C0
100
AcDbEntity
  8
1
 62
     3
100
AcDbMText
 10
-306.5000001793198
 20
-158.631026629264
 30
0.0
 40
3.5
 41
0.0
 71
     7
 72
     1
  1
22
  7
CONVERTER_11
 11
0.0
 21
1.0
 31
0.0
 73
     1
 44
0.60024009603842
  0
ENDBLK
  5
C8
330
C0
100
AcDbEntity
  8
0
100
AcDbBlockEnd
  0
BLOCK
  5
108
330
101
100
AcDbEntity
  8
0
100
AcDbBlockBegin
  2
*D20
 70
     1
 10
0.0
 20
0.0
 30
0.0
  3
*D20
  1

  0
LINE
  5
102
330
101
100
AcDbEntity
  8
1
  6
Continuous
 62
     2
100
AcDbLine
 10
-232.0000002383986
 20
-177.0000003372502
 30
0.0
 11
-222.1000002383985
 21
-177.0000003372502
 31
0.0
  0
LINE
  5
103
330
101
100
AcDbEntity
  8
1
  6
Continuous
 62
     2
100
AcDbLine
 10
-232.0000002383986
 20
-167.0000003372502
 30
0.0
 11
-232.0000002383986
 21
-178.5000003372502
 31
0.0
  0
LINE
  5
104
330
101
100
AcDbEntity
  8
1
  6
Continuous
 62
     2
100
AcDbLine
 10
-222.1000002383985
 20
-163.5000003372502
 30
0.0
 11
-222.1000002383985
 21
-178.5000003372502
 31
0.0
  0
SOLID
  5
105
330
101
100
AcDbEntity
  8
1
 62
     2
100
AcDbTrace
 10
-228.5000002383986
 20
-176.5392165956943
 30
0.0
 11
-228.5000002383986
 21
-177.4607840788061
 31
0.0
 12
-232.0000002383986
 22
-177.0000003372502
 32
0.0
 13
-232.0000002383986
 23
-177.0000003372502
 33
0.0
  0
SOLID
  5
106
330
101
100
AcDbEntity
  8
1
 62
     2
100
AcDbTrace
 10
-225.6000002383985
 20
-177.4607840788061
 30
0.0
 11
-225.6000002383985
 21
-176.5392165956943
 31
0.0
 12
-222.1000002383985
 22
-177.0000003372502
 32
0.0
 13
-222.1000002383985
 23
-177.0000003372502
 33
0.0
  0
MTEXT
  5
107
330
101
100
AcDbEntity
  8
1
 62
     3
100
AcDbMText
 10
-230.3815794269839
 20
-175.1500003372502
 30
0.0
 40
3.5
 41
0.0
 71
     7
 72
     1
  1
9,9
  7
CONVERTER_11
 11
0.9999999999970619
 21
2.424068405545306E-6
 31
0.0
 73
     1
 44
0.60024009603842
  0
ENDBLK
  5
109
330
101
100
AcDbEntity
  8
0
100
AcDbBlockEnd
  0
BLOCK
  5
136
330
12D
100
AcDbEntity
  8
0
100
AcDbBlockBegin
  2
*D21
 70
     1
 10
0.0
 20
0.0
 30
0.0
  3
*D21
  1

  0
LINE
  5
12E
330
12D
100
AcDbEntity
  8
1
  6
Continuous
 62
     2
100
AcDbLine
 10
-305.0000001793197
 20
-205.7182809845399
 30
0.0
 11
-305.0000001793197
 21
-212.9999997019967
 31
0.0
  0
LINE
  5
12F
330
12D
100
AcDbEntity
  8
1
  6
Continuous
 62
     2
100
AcDbLine
 10
-305.0000001793197
 20
-212.9999997019967
 30
0.0
 11
-305.0000001793197
 21
-216.9999997019967
 31
0.0
  0
LINE
  5
130
330
12D
100
AcDbEntity
  8
1
  6
Continuous
 62
     2
100
AcDbLine
 10
-305.0000001793197
 20
-216.9999997019967
 30
0.0
 11
-305.0000001793197
 21
-223.9999997019967
 31
0.0
  0
LINE
  5
131
330
12D
100
AcDbEntity
  8
1
  6
Continuous
 62
     2
100
AcDbLine
 10
-295.0000001793197
 20
-212.9999997019967
 30
0.0
 11
-306.5000001793197
 21
-212.9999997019967
 31
0.0
  0
LINE
  5
132
330
12D
100
AcDbEntity
  8
1
  6
Continuous
 62
     2
100
AcDbLine
 10
-295.0000001793197
 20
-216.9999997019967
 30
0.0
 11
-306.5000001793197
 21
-216.9999997019967
 31
0.0
  0
SOLID
  5
133
330
12D
100
AcDbEntity
  8
1
 62
     2
100
AcDbTrace
 10
-305.4607839208756
 20
-209.4999997019967
 30
0.0
 11
-304.5392164377639
 21
-209.4999997019967
 31
0.0
 12
-305.0000001793197
 22
-212.9999997019967
 32
0.0
 13
-305.0000001793197
 23
-212.9999997019967
 33
0.0
  0
SOLID
  5
134
330
12D
100
AcDbEntity
  8
1
 62
     2
100
AcDbTrace
 10
-304.5392164377639
 20
-220.4999997019967
 30
0.0
 11
-305.4607839208756
 21
-220.4999997019967
 31
0.0
 12
-305.0000001793197
 22
-216.9999997019967
 32
0.0
 13
-305.0000001793197
 23
-216.9999997019967
 33
0.0
  0
MTEXT
  5
135
330
12D
100
AcDbEntity
  8
1
 62
     3
100
AcDbMText
 10
-306.5000001793197
 20
-207.8182809845399
 30
0.0
 40
3.5
 41
0.0
 71
     7
 72
     1
  1
4
  7
CONVERTER_11
 11
0.0
 21
1.0
 31
0.0
 73
     1
 44
0.60024009603842
  0
ENDBLK
  5
137
330
12D
100
AcDbEntity
  8
0
100
AcDbBlockEnd
  0
ENDSEC
  0
SECTION
  2
ENTITIES
  0
INSERT
  5
86
330
1F
100
AcDbEntity
  8
1
100
AcDbBlockReference
  2
1
 10
0.0
 20
0.0
 30
0.0
  0
ENDSEC
  0
SECTION
  2
OBJECTS
  0
DICTIONARY
  5
C
330
0
100
AcDbDictionary
281
     1
  3
ACAD_GROUP
350
D
  3
ACAD_LAYOUT
350
1A
  3
ACAD_MATERIAL
350
3B
  3
ACAD_MLEADERSTYLE
350
29A
  3
ACAD_MLINESTYLE
350
17
  3
ACAD_PLOTSETTINGS
350
19
  3
ACAD_PLOTSTYLENAME
350
E
  3
ACAD_TABLESTYLE
350
299
  3
ACAD_VISUALSTYLE
350
2A
  0
DICTIONARY
  5
D
102
{ACAD_REACTORS
330
C
102
}
330
C
100
AcDbDictionary
281
     1
  0
DICTIONARY
  5
1A
102
{ACAD_REACTORS
330
C
102
}
330
C
100
AcDbDictionary
281
     1
  3
Layout1
350
1E
  3
Layout2
350
26
  3
Model
350
22
  0
DICTIONARY
  5
3B
102
{ACAD_REACTORS
330
C
102
}
330
C
100
AcDbDictionary
281
     1
  3
ByBlock
350
3D
  3
ByLayer
350
3C
  3
Global
350
3E
  0
DICTIONARY
  5
29A
102
{ACAD_REACTORS
330
C
102
}
330
C
100
AcDbDictionary
281
     1
  0
DICTIONARY
  5
17
102
{ACAD_REACTORS
330
C
102
}
330
C
100
AcDbDictionary
281
     1
  3
Standard
350
18
  0
DICTIONARY
  5
19
102
{ACAD_REACTORS
330
C
102
}
330
C
100
AcDbDictionary
281
     1
  0
ACDBDICTIONARYWDFLT
  5
E
102
{ACAD_REACTORS
330
C
102
}
330
C
100
AcDbDictionary
281
     1
  3
Normal
350
F
100
AcDbDictionaryWithDefault
340
F
  0
DICTIONARY
  5
299
102
{ACAD_REACTORS
330
C
102
}
330
C
100
AcDbDictionary
281
     1
  0
DICTIONARY
  5
2A
102
{ACAD_REACTORS
330
C
102
}
330
C
100
AcDbDictionary
281
     1
  3
2dWireframe
350
2F
  3
3D Hidden
350
31
  3
3dWireframe
350
30
  3
Basic
350
32
  3
Brighten
350
36
  3
ColorChange
350
3A
  3
Conceptual
350
34
  3
Dim
350
35
  3
Facepattern
350
39
  3
Flat
350
2B
  3
FlatWithEdges
350
2C
  3
Gouraud
350
2D
  3
GouraudWithEdges
350
2E
  3
Linepattern
350
38
  3
Realistic
350
33
  3
Thicken
350
37
  0
LAYOUT
  5
1E
102
{ACAD_REACTORS
330
1A
102
}
330
1A
100
AcDbPlotSettings
  1

  2
none_device
  4

  6

 40
0.0
 41
0.0
 42
0.0
 43
0.0
 44
0.0
 45
0.0
 46
0.0
 47
0.0
 48
0.0
 49
0.0
140
0.0
141
0.0
142
1.0
143
1.0
 70
   688
 72
     0
 73
     0
 74
     5
  7

 75
    16
 76
     0
 77
     2
 78
   300
147
1.0
148
0.0
149
0.0
100
AcDbLayout
  1
Layout1
 70
     1
 71
     1
 10
0.0
 20
0.0
 11
12.0
 21
9.0
 12
0.0
 22
0.0
 32
0.0
 14
1.00000000000000E+20
 24
1.00000000000000E+20
 34
1.00000000000000E+20
 15
-1.00000000000000E+20
 25
-1.00000000000000E+20
 35
-1.00000000000000E+20
146
0.0
 13
0.0
 23
0.0
 33
0.0
 16
1.0
 26
0.0
 36
0.0
 17
0.0
 27
1.0
 37
0.0
 76
     0
330
1B
  0
LAYOUT
  5
26
102
{ACAD_REACTORS
330
1A
102
}
330
1A
100
AcDbPlotSettings
  1

  2
none_device
  4

  6

 40
0.0
 41
0.0
 42
0.0
 43
0.0
 44
0.0
 45
0.0
 46
0.0
 47
0.0
 48
0.0
 49
0.0
140
0.0
141
0.0
142
1.0
143
1.0
 70
   688
 72
     0
 73
     0
 74
     5
  7

 75
    16
 76
     0
 77
     2
 78
   300
147
1.0
148
0.0
149
0.0
100
AcDbLayout
  1
Layout2
 70
     1
 71
     2
 10
0.0
 20
0.0
 11
0.0
 21
0.0
 12
0.0
 22
0.0
 32
0.0
 14
0.0
 24
0.0
 34
0.0
 15
0.0
 25
0.0
 35
0.0
146
0.0
 13
0.0
 23
0.0
 33
0.0
 16
1.0
 26
0.0
 36
0.0
 17
0.0
 27
1.0
 37
0.0
 76
     0
330
23
  0
LAYOUT
  5
22
102
{ACAD_REACTORS
330
1A
102
}
330
1A
100
AcDbPlotSettings
  1

  2
none_device
  4

  6

 40
0.0
 41
0.0
 42
0.0
 43
0.0
 44
0.0
 45
0.0
 46
0.0
 47
0.0
 48
0.0
 49
0.0
140
0.0
141
0.0
142
1.0
143
1.0
 70
  1712
 72
     0
 73
     0
 74
     0
  7

 75
     0
 76
     0
 77
     2
 78
   300
147
1.0
148
0.0
149
0.0
100
AcDbLayout
  1
Model
 70
     1
 71
     0
 10
0.0
 20
0.0
 11
12.0
 21
9.0
 12
0.0
 22
0.0
 32
0.0
 14
-384.7842967758601
 24
-303.3298053432702
 34
0.0
 15
-87.784296775862
 25
-93.3298053432701
 35
0.0
146
0.0
 13
0.0
 23
0.0
 33
0.0
 16
1.0
 26
0.0
 36
0.0
 17
0.0
 27
1.0
 37
0.0
 76
     0
330
1F
331
29
  0
MATERIAL
  5
3D
102
{ACAD_REACTORS
330
3B
102
}
102
{ACAD_XDICTIONARY
360
295
102
}
330
3B
100
AcDbMaterial
  1
ByBlock
  0
MATERIAL
  5
3C
102
{ACAD_REACTORS
330
3B
102
}
102
{ACAD_XDICTIONARY
360
293
102
}
330
3B
100
AcDbMaterial
  1
ByLayer
  0
MATERIAL
  5
3E
102
{ACAD_REACTORS
330
3B
102
}
102
{ACAD_XDICTIONARY
360
297
102
}
330
3B
100
AcDbMaterial
  1
Global
  0
MLINESTYLE
  5
18
102
{ACAD_REACTORS
330
17
102
}
330
17
100
AcDbMlineStyle
  2
Standard
 70
     0
  3

 62
   256
 51
90.0
 52
90.0
 71
     2
 49
0.5
 62
   256
  6
BYLAYER
 49
-0.5
 62
   256
  6
BYLAYER
  0
ACDBPLACEHOLDER
  5
F
102
{ACAD_REACTORS
330
E
102
}
330
E
  0
VISUALSTYLE
  5
2F
102
{ACAD_REACTORS
330
2A
102
}
102
{ACAD_XDICTIONARY
360
27B
102
}
330
2A
100
AcDbVisualStyle
  2
2dWireframe
 70
     4
 71
     0
 72
     2
 73
     0
 90
        0
 40
-0.6
 41
-30.0
 62
     5
 63
     7
421
 16777215
 74
     1
 91
        4
 64
     7
 65
   257
 75
     1
175
     1
 42
1.0
 92
        0
 66
   257
 43
1.0
 76
     1
 77
     6
 78
     2
 67
     7
 79
     5
170
     0
171
     0
290
     0
174
     0
 93
        1
 44
0.0
173
     0
291
     0
 45
0.0
1001
ACAD
1000
AcDbSavedByObjectVersion
1070
     0
  0
VISUALSTYLE
  5
31
102
{ACAD_REACTORS
330
2A
102
}
102
{ACAD_XDICTIONARY
360
27F
102
}
330
2A
100
AcDbVisualStyle
  2
3D Hidden
 70
     6
 71
     1
 72
     2
 73
     2
 90
        0
 40
-0.6
 41
-30.0
 62
     5
 63
     7
421
 16777215
 74
     2
 91
        2
 64
     7
 65
   257
 75
     2
175
     1
 42
40.0
 92
        0
 66
   257
 43
1.0
 76
     1
 77
     6
 78
     2
 67
     7
 79
     3
170
     0
171
     0
290
     0
174
     0
 93
        1
 44
0.0
173
     0
291
     0
 45
0.0
1001
ACAD
1000
AcDbSavedByObjectVersion
1070
     0
  0
VISUALSTYLE
  5
30
102
{ACAD_REACTORS
330
2A
102
}
102
{ACAD_XDICTIONARY
360
27D
102
}
330
2A
100
AcDbVisualStyle
  2
3dWireframe
 70
     5
 71
     0
 72
     2
 73
     0
 90
        0
 40
-0.6
 41
-30.0
 62
     5
 63
     7
421
 16777215
 74
     1
 91
        4
 64
     7
 65
   257
 75
     1
175
     1
 42
1.0
 92
        0
 66
   257
 43
1.0
 76
     1
 77
     6
 78
     2
 67
     7
 79
     5
170
     0
171
     0
290
     0
174
     0
 93
        1
 44
0.0
173
     0
291
     0
 45
0.0
1001
ACAD
1000
AcDbSavedByObjectVersion
1070
     0
  0
VISUALSTYLE
  5
32
102
{ACAD_REACTORS
330
2A
102
}
102
{ACAD_XDICTIONARY
360
281
102
}
330
2A
100
AcDbVisualStyle
  2
Basic
 70
     7
 71
     1
 72
     0
 73
     1
 90
        0
 40
-0.6
 41
-30.0
 62
     5
 63
     7
421
 16777215
 74
     0
 91
        4
 64
     7
 65
   257
 75
     1
175
     1
 42
1.0
 92
        8
 66
     7
 43
1.0
 76
     1
 77
     6
 78
     2
 67
     7
 79
     5
170
     0
171
     0
290
     0
174
     0
 93
        1
 44
0.0
173
     0
291
     1
 45
0.0
1001
ACAD
1000
AcDbSavedByObjectVersion
1070
     0
  0
VISUALSTYLE
  5
36
102
{ACAD_REACTORS
330
2A
102
}
102
{ACAD_XDICTIONARY
360
289
102
}
330
2A
100
AcDbVisualStyle
  2
Brighten
 70
    12
 71
     2
 72
     2
 73
     0
 90
        0
 40
-0.6
 41
-30.0
 62
     5
 63
     7
421
 16777215
 74
     1
 91
        4
 64
     7
 65
   257
 75
     1
175
     1
 42
1.0
 92
        8
 66
     7
 43
1.0
 76
     1
 77
     6
 78
     2
 67
     7
 79
     5
170
     0
171
     0
290
     0
174
     0
 93
        1
 44
50.0
173
     0
291
     1
 45
0.0
1001
ACAD
1000
AcDbSavedByObjectVersion
1070
     0
  0
VISUALSTYLE
  5
3A
102
{ACAD_REACTORS
330
2A
102
}
102
{ACAD_XDICTIONARY
360
291
102
}
330
2A
100
AcDbVisualStyle
  2
ColorChange
 70
    16
 71
     2
 72
     2
 73
     3
 90
        0
 40
-0.6
 41
-30.0
 62
     5
 63
     8
421
  8421504
 74
     1
 91
        4
 64
     7
 65
   257
 75
     1
175
     1
 42
1.0
 92
        8
 66
     8
424
  8421504
 43
1.0
 76
     1
 77
     6
 78
     2
 67
     7
 79
     5
170
     0
171
     0
290
     0
174
     0
 93
        1
 44
0.0
173
     0
291
     1
 45
0.0
1001
ACAD
1000
AcDbSavedByObjectVersion
1070
     0
  0
VISUALSTYLE
  5
34
102
{ACAD_REACTORS
330
2A
102
}
102
{ACAD_XDICTIONARY
360
285
102
}
330
2A
100
AcDbVisualStyle
  2
Conceptual
 70
     9
 71
     3
 72
     2
 73
     0
 90
        0
 40
-0.6
 41
-30.0
 62
     5
 63
     7
421
 16777215
 74
     2
 91
        2
 64
     7
 65
   257
 75
     1
175
     1
 42
40.0
 92
        8
 66
     7
 43
1.0
 76
     1
 77
     6
 78
     2
 67
     7
 79
     3
170
     0
171
     0
290
     0
174
     0
 93
        1
 44
0.0
173
     0
291
     0
 45
0.0
1001
ACAD
1000
AcDbSavedByObjectVersion
1070
     0
  0
VISUALSTYLE
  5
35
102
{ACAD_REACTORS
330
2A
102
}
102
{ACAD_XDICTIONARY
360
287
102
}
330
2A
100
AcDbVisualStyle
  2
Dim
 70
    11
 71
     2
 72
     2
 73
     0
 90
        0
 40
-0.6
 41
-30.0
 62
     5
 63
     7
421
 16777215
 74
     1
 91
        4
 64
     7
 65
   257
 75
     1
175
     1
 42
1.0
 92
        8
 66
     7
 43
1.0
 76
     1
 77
     6
 78
     2
 67
     7
 79
     5
170
     0
171
     0
290
     0
174
     0
 93
        1
 44
-50.0
173
     0
291
     1
 45
0.0
1001
ACAD
1000
AcDbSavedByObjectVersion
1070
     0
  0
VISUALSTYLE
  5
39
102
{ACAD_REACTORS
330
2A
102
}
102
{ACAD_XDICTIONARY
360
28F
102
}
330
2A
100
AcDbVisualStyle
  2
Facepattern
 70
    15
 71
     2
 72
     2
 73
     0
 90
        0
 40
-0.6
 41
-30.0
 62
     5
 63
     7
421
 16777215
 74
     1
 91
        4
 64
     7
 65
   257
 75
     1
175
     1
 42
1.0
 92
        8
 66
     7
 43
1.0
 76
     1
 77
     6
 78
     2
 67
     7
 79
     5
170
     0
171
     0
290
     0
174
     0
 93
        1
 44
0.0
173
     0
291
     1
 45
0.0
1001
ACAD
1000
AcDbSavedByObjectVersion
1070
     0
  0
VISUALSTYLE
  5
2B
102
{ACAD_REACTORS
330
2A
102
}
102
{ACAD_XDICTIONARY
360
273
102
}
330
2A
100
AcDbVisualStyle
  2
Flat
 70
     0
 71
     2
 72
     1
 73
     1
 90
        2
 40
-0.6
 41
30.0
 62
     5
 63
     7
421
 16777215
 74
     0
 91
        4
 64
     7
 65
   257
 75
     1
175
     1
 42
1.0
 92
        8
 66
     7
 43
1.0
 76
     1
 77
     6
 78
     2
 67
     7
 79
     5
170
     0
171
     0
290
     0
174
     0
 93
       13
 44
0.0
173
     0
291
     1
 45
0.0
1001
ACAD
1000
AcDbSavedByObjectVersion
1070
     0
  0
VISUALSTYLE
  5
2C
102
{ACAD_REACTORS
330
2A
102
}
102
{ACAD_XDICTIONARY
360
275
102
}
330
2A
100
AcDbVisualStyle
  2
FlatWithEdges
 70
     1
 71
     2
 72
     1
 73
     1
 90
        2
 40
-0.6
 41
30.0
 62
     5
 63
     7
421
 16777215
 74
     1
 91
        4
 64
     7
 65
   257
 75
     1
175
     1
 42
1.0
 92
        0
 66
   257
 43
1.0
 76
     1
 77
     6
 78
     2
 67
     7
 79
     5
170
     0
171
     0
290
     0
174
     0
 93
       13
 44
0.0
173
     0
291
     1
 45
0.0
1001
ACAD
1000
AcDbSavedByObjectVersion
1070
     0
  0
VISUALSTYLE
  5
2D
102
{ACAD_REACTORS
330
2A
102
}
102
{ACAD_XDICTIONARY
360
277
102
}
330
2A
100
AcDbVisualStyle
  2
Gouraud
 70
     2
 71
     2
 72
     2
 73
     1
 90
        2
 40
-0.6
 41
30.0
 62
     5
 63
     7
421
 16777215
 74
     0
 91
        4
 64
     7
 65
   257
 75
     1
175
     1
 42
1.0
 92
        0
 66
     7
 43
1.0
 76
     1
 77
     6
 78
     2
 67
     7
 79
     5
170
     0
171
     0
290
     0
174
     0
 93
       13
 44
0.0
173
     0
291
     1
 45
0.0
1001
ACAD
1000
AcDbSavedByObjectVersion
1070
     0
  0
VISUALSTYLE
  5
2E
102
{ACAD_REACTORS
330
2A
102
}
102
{ACAD_XDICTIONARY
360
279
102
}
330
2A
100
AcDbVisualStyle
  2
GouraudWithEdges
 70
     3
 71
     2
 72
     2
 73
     1
 90
        2
 40
-0.6
 41
30.0
 62
     5
 63
     7
421
 16777215
 74
     1
 91
        4
 64
     7
 65
   257
 75
     1
175
     1
 42
1.0
 92
        0
 66
   257
 43
1.0
 76
     1
 77
     6
 78
     2
 67
     7
 79
     5
170
     0
171
     0
290
     0
174
     0
 93
       13
 44
0.0
173
     0
291
     1
 45
0.0
1001
ACAD
1000
AcDbSavedByObjectVersion
1070
     0
  0
VISUALSTYLE
  5
38
102
{ACAD_REACTORS
330
2A
102
}
102
{ACAD_XDICTIONARY
360
28D
102
}
330
2A
100
AcDbVisualStyle
  2
Linepattern
 70
    14
 71
     2
 72
     2
 73
     0
 90
        0
 40
-0.6
 41
-30.0
 62
     5
 63
     7
421
 16777215
 74
     1
 91
        4
 64
     7
 65
   257
 75
     7
175
     7
 42
1.0
 92
        8
 66
     7
 43
1.0
 76
     1
 77
     6
 78
     2
 67
     7
 79
     5
170
     0
171
     0
290
     0
174
     0
 93
        1
 44
0.0
173
     0
291
     1
 45
0.0
1001
ACAD
1000
AcDbSavedByObjectVersion
1070
     0
  0
VISUALSTYLE
  5
33
102
{ACAD_REACTORS
330
2A
102
}
102
{ACAD_XDICTIONARY
360
283
102
}
330
2A
100
AcDbVisualStyle
  2
Realistic
 70
     8
 71
     2
 72
     2
 73
     0
 90
        0
 40
-0.6
 41
-30.0
 62
     5
 63
     7
421
 16777215
 74
     1
 91
        0
 64
     7
 65
   257
 75
     1
175
     1
 42
1.0
 92
        8
 66
     8
424
  7895160
 43
1.0
 76
     1
 77
     6
 78
     2
 67
     7
 79
     5
170
     0
171
     0
290
     0
174
     0
 93
       13
 44
0.0
173
     0
291
     0
 45
0.0
1001
ACAD
1000
AcDbSavedByObjectVersion
1070
     0
  0
VISUALSTYLE
  5
37
102
{ACAD_REACTORS
330
2A
102
}
102
{ACAD_XDICTIONARY
360
28B
102
}
330
2A
100
AcDbVisualStyle
  2
Thicken
 70
    13
 71
     2
 72
     2
 73
     0
 90
        0
 40
-0.6
 41
-30.0
 62
     5
 63
     7
421
 16777215
 74
     1
 91
        4
 64
     7
 65
   257
 75
     1
175
     1
 42
1.0
 92
       12
 66
     7
 43
1.0
 76
     1
 77
     6
 78
     2
 67
     7
 79
     5
170
     0
171
     0
290
     0
174
     0
 93
        1
 44
0.0
173
     0
291
     1
 45
0.0
1001
ACAD
1000
AcDbSavedByObjectVersion
1070
     0
  0
DICTIONARY
  5
295
330
3D
100
AcDbDictionary
280
     1
281
     1
  3
ACAD_XREC_ROUNDTRIP
360
296
  0
DICTIONARY
  5
293
330
3C
100
AcDbDictionary
280
     1
281
     1
  3
ACAD_XREC_ROUNDTRIP
360
294
  0
DICTIONARY
  5
297
330
3E
100
AcDbDictionary
280
     1
281
     1
  3
ACAD_XREC_ROUNDTRIP
360
298
  0
DICTIONARY
  5
27B
330
2F
100
AcDbDictionary
280
     1
281
     1
  3
ACAD_XREC_ROUNDTRIP
360
27C
  0
DICTIONARY
  5
27F
330
31
100
AcDbDictionary
280
     1
281
     1
  3
ACAD_XREC_ROUNDTRIP
360
280
  0
DICTIONARY
  5
27D
330
30
100
AcDbDictionary
280
     1
281
     1
  3
ACAD_XREC_ROUNDTRIP
360
27E
  0
DICTIONARY
  5
281
330
32
100
AcDbDictionary
280
     1
281
     1
  3
ACAD_XREC_ROUNDTRIP
360
282
  0
DICTIONARY
  5
289
330
36
100
AcDbDictionary
280
     1
281
     1
  3
ACAD_XREC_ROUNDTRIP
360
28A
  0
DICTIONARY
  5
291
330
3A
100
AcDbDictionary
280
     1
281
     1
  3
ACAD_XREC_ROUNDTRIP
360
292
  0
DICTIONARY
  5
285
330
34
100
AcDbDictionary
280
     1
281
     1
  3
ACAD_XREC_ROUNDTRIP
360
286
  0
DICTIONARY
  5
287
330
35
100
AcDbDictionary
280
     1
281
     1
  3
ACAD_XREC_ROUNDTRIP
360
288
  0
DICTIONARY
  5
28F
330
39
100
AcDbDictionary
280
     1
281
     1
  3
ACAD_XREC_ROUNDTRIP
360
290
  0
DICTIONARY
  5
273
330
2B
100
AcDbDictionary
280
     1
281
     1
  3
ACAD_XREC_ROUNDTRIP
360
274
  0
DICTIONARY
  5
275
330
2C
100
AcDbDictionary
280
     1
281
     1
  3
ACAD_XREC_ROUNDTRIP
360
276
  0
DICTIONARY
  5
277
330
2D
100
AcDbDictionary
280
     1
281
     1
  3
ACAD_XREC_ROUNDTRIP
360
278
  0
DICTIONARY
  5
279
330
2E
100
AcDbDictionary
280
     1
281
     1
  3
ACAD_XREC_ROUNDTRIP
360
27A
  0
DICTIONARY
  5
28D
330
38
100
AcDbDictionary
280
     1
281
     1
  3
ACAD_XREC_ROUNDTRIP
360
28E
  0
DICTIONARY
  5
283
330
33
100
AcDbDictionary
280
     1
281
     1
  3
ACAD_XREC_ROUNDTRIP
360
284
  0
DICTIONARY
  5
28B
330
37
100
AcDbDictionary
280
     1
281
     1
  3
ACAD_XREC_ROUNDTRIP
360
28C
  0
XRECORD
  5
296
102
{ACAD_REACTORS
330
295
102
}
330
295
100
AcDbXrecord
280
     1
102
MATERIAL
148
0.0
149
0.0
149
0.0
 93
        0
 94
      127
282
     0
 72
     1
 77
     1
171
     1
175
     1
179
     1
273
     0
  0
XRECORD
  5
294
102
{ACAD_REACTORS
330
293
102
}
330
293
100
AcDbXrecord
280
     1
102
MATERIAL
148
0.0
149
0.0
149
0.0
 93
        0
 94
      127
282
     0
 72
     1
 77
     1
171
     1
175
     1
179
     1
273
     0
  0
XRECORD
  5
298
102
{ACAD_REACTORS
330
297
102
}
330
297
100
AcDbXrecord
280
     1
102
MATERIAL
148
0.0
149
0.0
149
0.0
 93
        0
 94
      127
282
     0
 72
     1
 77
     1
171
     1
175
     1
179
     1
273
     0
  0
XRECORD
  5
27C
102
{ACAD_REACTORS
330
27B
102
}
330
27B
100
AcDbXrecord
280
     1
102
RTVSPropertyOp0
 70
     1
102
RTVSPropertyOp1
 70
     1
102
RTVSPropertyOp2
 70
     1
102
RTVSPropertyOp3
 70
     1
102
RTVSPropertyOp4
 70
     1
102
RTVSPropertyOp5
 70
     1
102
RTVSPropertyOp6
 70
     1
102
RTVSPropertyOp7
 70
     1
102
RTVSPropertyOp8
 70
     1
102
RTVSPropertyOp9
 70
     1
102
RTVSPropertyOp10
 70
     1
102
RTVSPropertyOp11
 70
     1
102
RTVSPropertyOp12
 70
     1
102
RTVSPropertyOp13
 70
     1
102
RTVSPropertyOp14
 70
     1
102
RTVSPropertyOp15
 70
     1
102
RTVSPropertyOp16
 70
     1
102
RTVSPropertyOp17
 70
     1
102
RTVSPropertyOp18
 70
     1
102
RTVSPropertyOp19
 70
     1
102
RTVSPropertyOp20
 70
     1
102
RTVSPropertyOp21
 70
     1
102
RTVSPropertyOp22
 70
     1
102
RTVSPropertyOp23
 70
     1
102
RTVSPropertyOp24
 70
     1
102
RTVSPropertyOp25
 70
     1
102
RTVSPropertyOp26
 70
     1
102
RTVSPropertyOp27
 70
     1
102
RTVSPropertyOp28
 70
     1
102
RTVSPropertyOp29
 70
     1
102
RTVSPropertyOp30
 70
     1
102
RTVSPropertyOp31
 70
     1
102
RTVSPropertyOp32
 70
     1
  0
XRECORD
  5
280
102
{ACAD_REACTORS
330
27F
102
}
330
27F
100
AcDbXrecord
280
     1
102
RTVSPropertyOp0
 70
     1
102
RTVSPropertyOp1
 70
     1
102
RTVSPropertyOp2
 70
     1
102
RTVSPropertyOp3
 70
     1
102
RTVSPropertyOp4
 70
     1
102
RTVSPropertyOp5
 70
     1
102
RTVSPropertyOp6
 70
     1
102
RTVSPropertyOp7
 70
     1
102
RTVSPropertyOp8
 70
     1
102
RTVSPropertyOp9
 70
     1
102
RTVSPropertyOp10
 70
     1
102
RTVSPropertyOp11
 70
     1
102
RTVSPropertyOp12
 70
     1
102
RTVSPropertyOp13
 70
     1
102
RTVSPropertyOp14
 70
     1
102
RTVSPropertyOp15
 70
     1
102
RTVSPropertyOp16
 70
     1
102
RTVSPropertyOp17
 70
     1
102
RTVSPropertyOp18
 70
     1
102
RTVSPropertyOp19
 70
     1
102
RTVSPropertyOp20
 70
     1
102
RTVSPropertyOp21
 70
     1
102
RTVSPropertyOp22
 70
     1
102
RTVSPropertyOp23
 70
     1
102
RTVSPropertyOp24
 70
     1
102
RTVSPropertyOp25
 70
     1
102
RTVSPropertyOp26
 70
     1
102
RTVSPropertyOp27
 70
     1
102
RTVSPropertyOp28
 70
     1
102
RTVSPropertyOp29
 70
     1
102
RTVSPropertyOp30
 70
     1
102
RTVSPropertyOp31
 70
     1
102
RTVSPropertyOp32
 70
     1
  0
XRECORD
  5
27E
102
{ACAD_REACTORS
330
27D
102
}
330
27D
100
AcDbXrecord
280
     1
102
RTVSPropertyOp0
 70
     1
102
RTVSPropertyOp1
 70
     1
102
RTVSPropertyOp2
 70
     1
102
RTVSPropertyOp3
 70
     1
102
RTVSPropertyOp4
 70
     1
102
RTVSPropertyOp5
 70
     1
102
RTVSPropertyOp6
 70
     1
102
RTVSPropertyOp7
 70
     1
102
RTVSPropertyOp8
 70
     1
102
RTVSPropertyOp9
 70
     1
102
RTVSPropertyOp10
 70
     1
102
RTVSPropertyOp11
 70
     1
102
RTVSPropertyOp12
 70
     1
102
RTVSPropertyOp13
 70
     1
102
RTVSPropertyOp14
 70
     1
102
RTVSPropertyOp15
 70
     1
102
RTVSPropertyOp16
 70
     1
102
RTVSPropertyOp17
 70
     1
102
RTVSPropertyOp18
 70
     1
102
RTVSPropertyOp19
 70
     1
102
RTVSPropertyOp20
 70
     1
102
RTVSPropertyOp21
 70
     1
102
RTVSPropertyOp22
 70
     1
102
RTVSPropertyOp23
 70
     1
102
RTVSPropertyOp24
 70
     1
102
RTVSPropertyOp25
 70
     1
102
RTVSPropertyOp26
 70
     1
102
RTVSPropertyOp27
 70
     1
102
RTVSPropertyOp28
 70
     1
102
RTVSPropertyOp29
 70
     1
102
RTVSPropertyOp30
 70
     1
102
RTVSPropertyOp31
 70
     1
102
RTVSPropertyOp32
 70
     1
  0
XRECORD
  5
282
102
{ACAD_REACTORS
330
281
102
}
330
281
100
AcDbXrecord
280
     1
102
RTVSPropertyOp0
 70
     1
102
RTVSPropertyOp1
 70
     1
102
RTVSPropertyOp2
 70
     1
102
RTVSPropertyOp3
 70
     1
102
RTVSPropertyOp4
 70
     1
102
RTVSPropertyOp5
 70
     1
102
RTVSPropertyOp6
 70
     1
102
RTVSPropertyOp7
 70
     1
102
RTVSPropertyOp8
 70
     1
102
RTVSPropertyOp9
 70
     1
102
RTVSPropertyOp10
 70
     1
102
RTVSPropertyOp11
 70
     1
102
RTVSPropertyOp12
 70
     1
102
RTVSPropertyOp13
 70
     1
102
RTVSPropertyOp14
 70
     1
102
RTVSPropertyOp15
 70
     1
102
RTVSPropertyOp16
 70
     1
102
RTVSPropertyOp17
 70
     1
102
RTVSPropertyOp18
 70
     1
102
RTVSPropertyOp19
 70
     1
102
RTVSPropertyOp20
 70
     1
102
RTVSPropertyOp21
 70
     1
102
RTVSPropertyOp22
 70
     1
102
RTVSPropertyOp23
 70
     1
102
RTVSPropertyOp24
 70
     1
102
RTVSPropertyOp25
 70
     1
102
RTVSPropertyOp26
 70
     1
102
RTVSPropertyOp27
 70
     1
102
RTVSPropertyOp28
 70
     1
102
RTVSPropertyOp29
 70
     1
102
RTVSPropertyOp30
 70
     1
102
RTVSPropertyOp31
 70
     1
102
RTVSPropertyOp32
 70
     1
  0
XRECORD
  5
28A
102
{ACAD_REACTORS
330
289
102
}
330
289
100
AcDbXrecord
280
     1
102
RTVSPropertyOp0
 70
     1
102
RTVSPropertyOp1
 70
     1
102
RTVSPropertyOp2
 70
     1
102
RTVSPropertyOp3
 70
     1
102
RTVSPropertyOp4
 70
     1
102
RTVSPropertyOp5
 70
     1
102
RTVSPropertyOp6
 70
     1
102
RTVSPropertyOp7
 70
     1
102
RTVSPropertyOp8
 70
     1
102
RTVSPropertyOp9
 70
     1
102
RTVSPropertyOp10
 70
     1
102
RTVSPropertyOp11
 70
     1
102
RTVSPropertyOp12
 70
     1
102
RTVSPropertyOp13
 70
     1
102
RTVSPropertyOp14
 70
     1
102
RTVSPropertyOp15
 70
     1
102
RTVSPropertyOp16
 70
     1
102
RTVSPropertyOp17
 70
     1
102
RTVSPropertyOp18
 70
     1
102
RTVSPropertyOp19
 70
     1
102
RTVSPropertyOp20
 70
     1
102
RTVSPropertyOp21
 70
     1
102
RTVSPropertyOp22
 70
     1
102
RTVSPropertyOp23
 70
     1
102
RTVSPropertyOp24
 70
     1
102
RTVSPropertyOp25
 70
     1
102
RTVSPropertyOp26
 70
     1
102
RTVSPropertyOp27
 70
     1
102
RTVSPropertyOp28
 70
     1
102
RTVSPropertyOp29
 70
     1
102
RTVSPropertyOp30
 70
     1
102
RTVSPropertyOp31
 70
     1
102
RTVSPropertyOp32
 70
     1
  0
XRECORD
  5
292
102
{ACAD_REACTORS
330
291
102
}
330
291
100
AcDbXrecord
280
     1
102
RTVSPropertyOp0
 70
     1
102
RTVSPropertyOp1
 70
     1
102
RTVSPropertyOp2
 70
     1
102
RTVSPropertyOp3
 70
     1
102
RTVSPropertyOp4
 70
     1
102
RTVSPropertyOp5
 70
     1
102
RTVSPropertyOp6
 70
     1
102
RTVSPropertyOp7
 70
     1
102
RTVSPropertyOp8
 70
     1
102
RTVSPropertyOp9
 70
     1
102
RTVSPropertyOp10
 70
     1
102
RTVSPropertyOp11
 70
     1
102
RTVSPropertyOp12
 70
     1
102
RTVSPropertyOp13
 70
     1
102
RTVSPropertyOp14
 70
     1
102
RTVSPropertyOp15
 70
     1
102
RTVSPropertyOp16
 70
     1
102
RTVSPropertyOp17
 70
     1
102
RTVSPropertyOp18
 70
     1
102
RTVSPropertyOp19
 70
     1
102
RTVSPropertyOp20
 70
     1
102
RTVSPropertyOp21
 70
     1
102
RTVSPropertyOp22
 70
     1
102
RTVSPropertyOp23
 70
     1
102
RTVSPropertyOp24
 70
     1
102
RTVSPropertyOp25
 70
     1
102
RTVSPropertyOp26
 70
     1
102
RTVSPropertyOp27
 70
     1
102
RTVSPropertyOp28
 70
     1
102
RTVSPropertyOp29
 70
     1
102
RTVSPropertyOp30
 70
     1
102
RTVSPropertyOp31
 70
     1
102
RTVSPropertyOp32
 70
     1
  0
XRECORD
  5
286
102
{ACAD_REACTORS
330
285
102
}
330
285
100
AcDbXrecord
280
     1
102
RTVSPropertyOp0
 70
     1
102
RTVSPropertyOp1
 70
     1
102
RTVSPropertyOp2
 70
     1
102
RTVSPropertyOp3
 70
     1
102
RTVSPropertyOp4
 70
     1
102
RTVSPropertyOp5
 70
     1
102
RTVSPropertyOp6
 70
     1
102
RTVSPropertyOp7
 70
     1
102
RTVSPropertyOp8
 70
     1
102
RTVSPropertyOp9
 70
     1
102
RTVSPropertyOp10
 70
     1
102
RTVSPropertyOp11
 70
     1
102
RTVSPropertyOp12
 70
     1
102
RTVSPropertyOp13
 70
     1
102
RTVSPropertyOp14
 70
     1
102
RTVSPropertyOp15
 70
     1
102
RTVSPropertyOp16
 70
     1
102
RTVSPropertyOp17
 70
     1
102
RTVSPropertyOp18
 70
     1
102
RTVSPropertyOp19
 70
     1
102
RTVSPropertyOp20
 70
     1
102
RTVSPropertyOp21
 70
     1
102
RTVSPropertyOp22
 70
     1
102
RTVSPropertyOp23
 70
     1
102
RTVSPropertyOp24
 70
     1
102
RTVSPropertyOp25
 70
     1
102
RTVSPropertyOp26
 70
     1
102
RTVSPropertyOp27
 70
     1
102
RTVSPropertyOp28
 70
     1
102
RTVSPropertyOp29
 70
     1
102
RTVSPropertyOp30
 70
     1
102
RTVSPropertyOp31
 70
     1
102
RTVSPropertyOp32
 70
     1
  0
XRECORD
  5
288
102
{ACAD_REACTORS
330
287
102
}
330
287
100
AcDbXrecord
280
     1
102
RTVSPropertyOp0
 70
     1
102
RTVSPropertyOp1
 70
     1
102
RTVSPropertyOp2
 70
     1
102
RTVSPropertyOp3
 70
     1
102
RTVSPropertyOp4
 70
     1
102
RTVSPropertyOp5
 70
     1
102
RTVSPropertyOp6
 70
     1
102
RTVSPropertyOp7
 70
     1
102
RTVSPropertyOp8
 70
     1
102
RTVSPropertyOp9
 70
     1
102
RTVSPropertyOp10
 70
     1
102
RTVSPropertyOp11
 70
     1
102
RTVSPropertyOp12
 70
     1
102
RTVSPropertyOp13
 70
     1
102
RTVSPropertyOp14
 70
     1
102
RTVSPropertyOp15
 70
     1
102
RTVSPropertyOp16
 70
     1
102
RTVSPropertyOp17
 70
     1
102
RTVSPropertyOp18
 70
     1
102
RTVSPropertyOp19
 70
     1
102
RTVSPropertyOp20
 70
     1
102
RTVSPropertyOp21
 70
     1
102
RTVSPropertyOp22
 70
     1
102
RTVSPropertyOp23
 70
     1
102
RTVSPropertyOp24
 70
     1
102
RTVSPropertyOp25
 70
     1
102
RTVSPropertyOp26
 70
     1
102
RTVSPropertyOp27
 70
     1
102
RTVSPropertyOp28
 70
     1
102
RTVSPropertyOp29
 70
     1
102
RTVSPropertyOp30
 70
     1
102
RTVSPropertyOp31
 70
     1
102
RTVSPropertyOp32
 70
     1
  0
XRECORD
  5
290
102
{ACAD_REACTORS
330
28F
102
}
330
28F
100
AcDbXrecord
280
     1
102
RTVSPropertyOp0
 70
     1
102
RTVSPropertyOp1
 70
     1
102
RTVSPropertyOp2
 70
     1
102
RTVSPropertyOp3
 70
     1
102
RTVSPropertyOp4
 70
     1
102
RTVSPropertyOp5
 70
     1
102
RTVSPropertyOp6
 70
     1
102
RTVSPropertyOp7
 70
     1
102
RTVSPropertyOp8
 70
     1
102
RTVSPropertyOp9
 70
     1
102
RTVSPropertyOp10
 70
     1
102
RTVSPropertyOp11
 70
     1
102
RTVSPropertyOp12
 70
     1
102
RTVSPropertyOp13
 70
     1
102
RTVSPropertyOp14
 70
     1
102
RTVSPropertyOp15
 70
     1
102
RTVSPropertyOp16
 70
     1
102
RTVSPropertyOp17
 70
     1
102
RTVSPropertyOp18
 70
     1
102
RTVSPropertyOp19
 70
     1
102
RTVSPropertyOp20
 70
     1
102
RTVSPropertyOp21
 70
     1
102
RTVSPropertyOp22
 70
     1
102
RTVSPropertyOp23
 70
     1
102
RTVSPropertyOp24
 70
     1
102
RTVSPropertyOp25
 70
     1
102
RTVSPropertyOp26
 70
     1
102
RTVSPropertyOp27
 70
     1
102
RTVSPropertyOp28
 70
     1
102
RTVSPropertyOp29
 70
     1
102
RTVSPropertyOp30
 70
     1
102
RTVSPropertyOp31
 70
     1
102
RTVSPropertyOp32
 70
     1
  0
XRECORD
  5
274
102
{ACAD_REACTORS
330
273
102
}
330
273
100
AcDbXrecord
280
     1
102
RTVSPropertyOp0
 70
     1
102
RTVSPropertyOp1
 70
     1
102
RTVSPropertyOp2
 70
     1
102
RTVSPropertyOp3
 70
     1
102
RTVSPropertyOp4
 70
     1
102
RTVSPropertyOp5
 70
     1
102
RTVSPropertyOp6
 70
     1
102
RTVSPropertyOp7
 70
     1
102
RTVSPropertyOp8
 70
     1
102
RTVSPropertyOp9
 70
     1
102
RTVSPropertyOp10
 70
     1
102
RTVSPropertyOp11
 70
     1
102
RTVSPropertyOp12
 70
     1
102
RTVSPropertyOp13
 70
     1
102
RTVSPropertyOp14
 70
     1
102
RTVSPropertyOp15
 70
     1
102
RTVSPropertyOp16
 70
     1
102
RTVSPropertyOp17
 70
     1
102
RTVSPropertyOp18
 70
     1
102
RTVSPropertyOp19
 70
     1
102
RTVSPropertyOp20
 70
     1
102
RTVSPropertyOp21
 70
     1
102
RTVSPropertyOp22
 70
     1
102
RTVSPropertyOp23
 70
     1
102
RTVSPropertyOp24
 70
     1
102
RTVSPropertyOp25
 70
     1
102
RTVSPropertyOp26
 70
     1
102
RTVSPropertyOp27
 70
     1
102
RTVSPropertyOp28
 70
     1
102
RTVSPropertyOp29
 70
     1
102
RTVSPropertyOp30
 70
     1
102
RTVSPropertyOp31
 70
     1
102
RTVSPropertyOp32
 70
     1
  0
XRECORD
  5
276
102
{ACAD_REACTORS
330
275
102
}
330
275
100
AcDbXrecord
280
     1
102
RTVSPropertyOp0
 70
     1
102
RTVSPropertyOp1
 70
     1
102
RTVSPropertyOp2
 70
     1
102
RTVSPropertyOp3
 70
     1
102
RTVSPropertyOp4
 70
     1
102
RTVSPropertyOp5
 70
     1
102
RTVSPropertyOp6
 70
     1
102
RTVSPropertyOp7
 70
     1
102
RTVSPropertyOp8
 70
     1
102
RTVSPropertyOp9
 70
     1
102
RTVSPropertyOp10
 70
     1
102
RTVSPropertyOp11
 70
     1
102
RTVSPropertyOp12
 70
     1
102
RTVSPropertyOp13
 70
     1
102
RTVSPropertyOp14
 70
     1
102
RTVSPropertyOp15
 70
     1
102
RTVSPropertyOp16
 70
     1
102
RTVSPropertyOp17
 70
     1
102
RTVSPropertyOp18
 70
     1
102
RTVSPropertyOp19
 70
     1
102
RTVSPropertyOp20
 70
     1
102
RTVSPropertyOp21
 70
     1
102
RTVSPropertyOp22
 70
     1
102
RTVSPropertyOp23
 70
     1
102
RTVSPropertyOp24
 70
     1
102
RTVSPropertyOp25
 70
     1
102
RTVSPropertyOp26
 70
     1
102
RTVSPropertyOp27
 70
     1
102
RTVSPropertyOp28
 70
     1
102
RTVSPropertyOp29
 70
     1
102
RTVSPropertyOp30
 70
     1
102
RTVSPropertyOp31
 70
     1
102
RTVSPropertyOp32
 70
     1
  0
XRECORD
  5
278
102
{ACAD_REACTORS
330
277
102
}
330
277
100
AcDbXrecord
280
     1
102
RTVSPropertyOp0
 70
     1
102
RTVSPropertyOp1
 70
     1
102
RTVSPropertyOp2
 70
     1
102
RTVSPropertyOp3
 70
     1
102
RTVSPropertyOp4
 70
     1
102
RTVSPropertyOp5
 70
     1
102
RTVSPropertyOp6
 70
     1
102
RTVSPropertyOp7
 70
     1
102
RTVSPropertyOp8
 70
     1
102
RTVSPropertyOp9
 70
     1
102
RTVSPropertyOp10
 70
     1
102
RTVSPropertyOp11
 70
     1
102
RTVSPropertyOp12
 70
     1
102
RTVSPropertyOp13
 70
     1
102
RTVSPropertyOp14
 70
     1
102
RTVSPropertyOp15
 70
     1
102
RTVSPropertyOp16
 70
     1
102
RTVSPropertyOp17
 70
     1
102
RTVSPropertyOp18
 70
     1
102
RTVSPropertyOp19
 70
     1
102
RTVSPropertyOp20
 70
     1
102
RTVSPropertyOp21
 70
     1
102
RTVSPropertyOp22
 70
     1
102
RTVSPropertyOp23
 70
     1
102
RTVSPropertyOp24
 70
     1
102
RTVSPropertyOp25
 70
     1
102
RTVSPropertyOp26
 70
     1
102
RTVSPropertyOp27
 70
     1
102
RTVSPropertyOp28
 70
     1
102
RTVSPropertyOp29
 70
     1
102
RTVSPropertyOp30
 70
     1
102
RTVSPropertyOp31
 70
     1
102
RTVSPropertyOp32
 70
     1
  0
XRECORD
  5
27A
102
{ACAD_REACTORS
330
279
102
}
330
279
100
AcDbXrecord
280
     1
102
RTVSPropertyOp0
 70
     1
102
RTVSPropertyOp1
 70
     1
102
RTVSPropertyOp2
 70
     1
102
RTVSPropertyOp3
 70
     1
102
RTVSPropertyOp4
 70
     1
102
RTVSPropertyOp5
 70
     1
102
RTVSPropertyOp6
 70
     1
102
RTVSPropertyOp7
 70
     1
102
RTVSPropertyOp8
 70
     1
102
RTVSPropertyOp9
 70
     1
102
RTVSPropertyOp10
 70
     1
102
RTVSPropertyOp11
 70
     1
102
RTVSPropertyOp12
 70
     1
102
RTVSPropertyOp13
 70
     1
102
RTVSPropertyOp14
 70
     1
102
RTVSPropertyOp15
 70
     1
102
RTVSPropertyOp16
 70
     1
102
RTVSPropertyOp17
 70
     1
102
RTVSPropertyOp18
 70
     1
102
RTVSPropertyOp19
 70
     1
102
RTVSPropertyOp20
 70
     1
102
RTVSPropertyOp21
 70
     1
102
RTVSPropertyOp22
 70
     1
102
RTVSPropertyOp23
 70
     1
102
RTVSPropertyOp24
 70
     1
102
RTVSPropertyOp25
 70
     1
102
RTVSPropertyOp26
 70
     1
102
RTVSPropertyOp27
 70
     1
102
RTVSPropertyOp28
 70
     1
102
RTVSPropertyOp29
 70
     1
102
RTVSPropertyOp30
 70
     1
102
RTVSPropertyOp31
 70
     1
102
RTVSPropertyOp32
 70
     1
  0
XRECORD
  5
28E
102
{ACAD_REACTORS
330
28D
102
}
330
28D
100
AcDbXrecord
280
     1
102
RTVSPropertyOp0
 70
     1
102
RTVSPropertyOp1
 70
     1
102
RTVSPropertyOp2
 70
     1
102
RTVSPropertyOp3
 70
     1
102
RTVSPropertyOp4
 70
     1
102
RTVSPropertyOp5
 70
     1
102
RTVSPropertyOp6
 70
     1
102
RTVSPropertyOp7
 70
     1
102
RTVSPropertyOp8
 70
     1
102
RTVSPropertyOp9
 70
     1
102
RTVSPropertyOp10
 70
     1
102
RTVSPropertyOp11
 70
     1
102
RTVSPropertyOp12
 70
     1
102
RTVSPropertyOp13
 70
     1
102
RTVSPropertyOp14
 70
     1
102
RTVSPropertyOp15
 70
     1
102
RTVSPropertyOp16
 70
     1
102
RTVSPropertyOp17
 70
     1
102
RTVSPropertyOp18
 70
     1
102
RTVSPropertyOp19
 70
     1
102
RTVSPropertyOp20
 70
     1
102
RTVSPropertyOp21
 70
     1
102
RTVSPropertyOp22
 70
     1
102
RTVSPropertyOp23
 70
     1
102
RTVSPropertyOp24
 70
     1
102
RTVSPropertyOp25
 70
     1
102
RTVSPropertyOp26
 70
     1
102
RTVSPropertyOp27
 70
     1
102
RTVSPropertyOp28
 70
     1
102
RTVSPropertyOp29
 70
     1
102
RTVSPropertyOp30
 70
     1
102
RTVSPropertyOp31
 70
     1
102
RTVSPropertyOp32
 70
     1
  0
XRECORD
  5
284
102
{ACAD_REACTORS
330
283
102
}
330
283
100
AcDbXrecord
280
     1
102
RTVSPropertyOp0
 70
     1
102
RTVSPropertyOp1
 70
     1
102
RTVSPropertyOp2
 70
     1
102
RTVSPropertyOp3
 70
     1
102
RTVSPropertyOp4
 70
     1
102
RTVSPropertyOp5
 70
     1
102
RTVSPropertyOp6
 70
     1
102
RTVSPropertyOp7
 70
     1
102
RTVSPropertyOp8
 70
     1
102
RTVSPropertyOp9
 70
     1
102
RTVSPropertyOp10
 70
     1
102
RTVSPropertyOp11
 70
     1
102
RTVSPropertyOp12
 70
     1
102
RTVSPropertyOp13
 70
     1
102
RTVSPropertyOp14
 70
     1
102
RTVSPropertyOp15
 70
     1
102
RTVSPropertyOp16
 70
     1
102
RTVSPropertyOp17
 70
     1
102
RTVSPropertyOp18
 70
     1
102
RTVSPropertyOp19
 70
     1
102
RTVSPropertyOp20
 70
     1
102
RTVSPropertyOp21
 70
     1
102
RTVSPropertyOp22
 70
     1
102
RTVSPropertyOp23
 70
     1
102
RTVSPropertyOp24
 70
     1
102
RTVSPropertyOp25
 70
     1
102
RTVSPropertyOp26
 70
     1
102
RTVSPropertyOp27
 70
     1
102
RTVSPropertyOp28
 70
     1
102
RTVSPropertyOp29
 70
     1
102
RTVSPropertyOp30
 70
     1
102
RTVSPropertyOp31
 70
     1
102
RTVSPropertyOp32
 70
     1
  0
XRECORD
  5
28C
102
{ACAD_REACTORS
330
28B
102
}
330
28B
100
AcDbXrecord
280
     1
102
RTVSPropertyOp0
 70
     1
102
RTVSPropertyOp1
 70
     1
102
RTVSPropertyOp2
 70
     1
102
RTVSPropertyOp3
 70
     1
102
RTVSPropertyOp4
 70
     1
102
RTVSPropertyOp5
 70
     1
102
RTVSPropertyOp6
 70
     1
102
RTVSPropertyOp7
 70
     1
102
RTVSPropertyOp8
 70
     1
102
RTVSPropertyOp9
 70
     1
102
RTVSPropertyOp10
 70
     1
102
RTVSPropertyOp11
 70
     1
102
RTVSPropertyOp12
 70
     1
102
RTVSPropertyOp13
 70
     1
102
RTVSPropertyOp14
 70
     1
102
RTVSPropertyOp15
 70
     1
102
RTVSPropertyOp16
 70
     1
102
RTVSPropertyOp17
 70
     1
102
RTVSPropertyOp18
 70
     1
102
RTVSPropertyOp19
 70
     1
102
RTVSPropertyOp20
 70
     1
102
RTVSPropertyOp21
 70
     1
102
RTVSPropertyOp22
 70
     1
102
RTVSPropertyOp23
 70
     1
102
RTVSPropertyOp24
 70
     1
102
RTVSPropertyOp25
 70
     1
102
RTVSPropertyOp26
 70
     1
102
RTVSPropertyOp27
 70
     1
102
RTVSPropertyOp28
 70
     1
102
RTVSPropertyOp29
 70
     1
102
RTVSPropertyOp30
 70
     1
102
RTVSPropertyOp31
 70
     1
102
RTVSPropertyOp32
 70
     1
  0
ENDSEC
  0
EOF
